<?xml version="1.0" standalone="no"?>
<!DOCTYPE svg PUBLIC "-//W3C//DTD SVG 1.1//EN" "http://www.w3.org/Graphics/SVG/1.1/DTD/svg11.dtd">
<svg xmlns="http://www.w3.org/2000/svg">
<defs >
<font id="Nunito" horiz-adv-x="545" ><font-face
    font-family="Nunito ExtraLight"
    units-per-em="1000"
    panose-1="0 0 3 0 0 0 0 0 0 0"
    ascent="1011"
    descent="-353"
    alphabetic="0" />
<glyph unicode=" " glyph-name="space" horiz-adv-x="246" />
<glyph unicode="!" glyph-name="exclam" horiz-adv-x="212" d="M99 157T95 162T92 174L79 685Q79 696 86 703T105 710Q116 710 123 703T131 685L119 174Q119 166 115 162T105 157Q99 157 95 162ZM89 -5T78 6T67 35Q67 53 78 64T106 75Q122 75 133 64T144 35Q144
17 133 6T106 -5Q89 -5 78 6Z" />
<glyph unicode="&quot;" glyph-name="quotedbl" horiz-adv-x="395" d="M96 435T92 439T88 451L75 679Q74 694 82 702T101 710Q113 710 120 702T128 679L116 451Q116 444 112 440T102 435Q96 435 92 439ZM289 435T285 439T281 451L268 679Q267 694 275 702T294
710Q306 710 313 702T321 679L309 451Q309 444 305 440T295 435Q289 435 285 439Z" />
<glyph unicode="#" glyph-name="numbersign" horiz-adv-x="600" d="M464 482L416 231H535Q545 231 551 225T557 209Q557 201 551 196T535 191H408L373 12Q372 5 366 0T352 -5Q341 -5 335 3T332 23L365 191H176L141 12Q140 5 134 0T120 -5Q109 -5 103 3T100 23L133
191H45Q35 191 29 197T23 213Q23 221 29 226T45 231H140L189 482H65Q55 482 49 488T43 504Q43 512 49 517T65 522H197L231 696Q233 704 239 708T253 713Q263 713 269 705T272 685L240 522H429L463 696Q464 703 470 708T484 713Q495 713 501 705T504 685L472 522H555Q565
522 571 516T577 500Q577 492 571 487T555 482H464ZM372 231L421 482H232L184 231H372Z" />
<glyph unicode="$" glyph-name="dollar" horiz-adv-x="600" d="M538 130T512 89T439 23T331 -7V-96Q331 -106 325 -113T310 -120Q300 -120 295 -114T289 -96V-8Q228 -5 166 16T64 80Q55 91 55 103Q55 112 58 117T69 123Q77 123 87 115Q194 33 304 33Q393 33 444
73T495 183Q495 226 470 252T408 291T306 321Q229 341 183 359T105 416T72 519Q72 573 99 616T176 684T290 713V801Q290 812 295 818T310 825Q320 825 325 819T331 801V712Q388 708 440 686T526 625Q536 612 536 602Q536 594 532 588T521 582Q511 582 503 590Q455
634 410 653T305 672Q216 672 165 631T114 517Q114 468 141 439T209 394T316 362Q389 344 433 327T507 275T538 181Q538 130 512 89Z" />
<glyph unicode="%" glyph-name="percent" horiz-adv-x="917" d="M271 -16T258 -16Q250 -16 244 -10T237 5Q237 12 241 19L639 707Q646 721 659 721Q667 721 673 715T680 700Q680 693 676 686L278 -2Q271 -16 258 -16ZM151 281T108 334T65 496Q65 604 108 658T228
712Q305 712 348 659T391 497Q391 389 348 335T228 281Q151 281 108 334ZM288 318T316 361T345 497Q345 587 316 630T228 674Q168 674 139 631T110 497Q110 405 139 362T228 318Q288 318 316 361ZM612 -7T569 47T526 209Q526 317 569 370T689 424Q766 424 809 371T852
209Q852 101 809 47T689 -7Q612 -7 569 47ZM749 31T777 74T806 209Q806 300 778 343T689 386Q629 386 600 343T571 209Q571 117 600 74T689 31Q749 31 777 74Z" />
<glyph unicode="&amp;" glyph-name="ampersand" horiz-adv-x="648" d="M637 17T637 12Q637 4 631 -2T617 -8Q609 -8 602 -1L501 111Q459 52 401 23T277 -7Q183 -7 124 41T64 170Q64 234 103 284T225 389L241 399Q193 452 172 488T150 568Q150 637 194 674T306
712Q371 712 409 677T448 580Q448 526 414 486T301 392L494 177Q534 261 540 382Q541 393 547 400T562 407Q571 407 576 401T582 383Q575 242 522 146L632 24Q637 17 637 12ZM195 530T214 500T275 422Q347 471 376 504T405 576Q405 619 378 645T306 672Q257 672
226 644T195 568Q195 530 214 500ZM336 32T387 58T474 141L268 369L253 359Q168 304 137 262T106 169Q106 104 153 68T278 32Q336 32 387 58Z" />
<glyph unicode="&apos;" glyph-name="quotesingle" horiz-adv-x="202" d="M96 435T92 439T88 451L75 679Q74 694 82 702T101 710Q113 710 120 702T128 679L116 451Q116 444 112 440T102 435Q96 435 92 439Z" />
<glyph unicode="(" glyph-name="parenleft" horiz-adv-x="281" d="M106 35T106 263Q106 490 208 706Q212 716 223 716Q232 716 238 709T240 691Q194 585 171 476T148 263Q148 159 171 50T240 -166Q242 -172 242 -173Q242 -180 236 -185T223 -190Q212 -190 208
-180Q106 35 106 263Z" />
<glyph unicode=")" glyph-name="parenright" horiz-adv-x="281" d="M69 -190T58 -190Q50 -190 45 -186T39 -174L41 -166Q87 -59 109 50T132 263Q132 366 110 475T41 691L39 699Q39 706 44 711T58 716Q69 716 73 706Q175 487 175 263Q175 38 73 -180Q69 -190 58 -190Z" />
<glyph unicode="*" glyph-name="asterisk" horiz-adv-x="448" d="M403 560T410 554T417 539Q417 531 410 526T390 520L252 523L324 406Q329 399 329 389Q329 381 324 376T312 370Q299 370 290 386L224 508L157 385Q149 370 136 370Q128 370 123 375T118 388Q118
397 123 404L196 523L57 520Q45 520 38 526T31 540Q31 548 38 554T57 559L196 556L123 675Q118 685 118 691Q118 699 123 704T136 710Q148 710 157 695L224 571L290 694Q299 710 312 710Q319 710 324 705T329 691Q329 682 324 674L251 556L390 559Q403 560 410
554Z" />
<glyph unicode="+" glyph-name="plus" horiz-adv-x="600" d="M531 303T537 298T544 284Q544 275 538 269T522 263H319V61Q319 52 314 46T300 40Q292 40 287 46T281 61V263H78Q69 263 63 269T56 284Q56 292 62 297T78 303H281V506Q281 515 286 521T300 528Q308
528 313 522T319 506V303H522Q531 303 537 298Z" />
<glyph unicode="," glyph-name="comma" horiz-adv-x="212" d="M123 75T133 61T144 16Q144 -47 106 -90Q97 -99 88 -99Q81 -99 76 -94T71 -81Q71 -72 77 -66Q89 -53 94 -39T102 -4Q87 -3 77 7T67 35Q67 53 77 64T105 75Q123 75 133 61Z" />
<glyph unicode="-" glyph-name="hyphen" horiz-adv-x="416" d="M83 246T78 251T72 265Q72 273 77 278T92 284H325Q334 284 339 279T344 265Q344 257 339 252T325 246H92Q83 246 78 251Z" />
<glyph unicode="." glyph-name="period" horiz-adv-x="212" d="M89 -5T78 6T67 35Q67 53 78 64T106 75Q122 75 133 64T144 35Q144 17 133 6T106 -5Q89 -5 78 6Z" />
<glyph unicode="/" glyph-name="slash" horiz-adv-x="256" d="M25 -46T19 -51T7 -56Q-2 -56 -8 -49T-15 -32Q-15 -29 -13 -23L227 725Q233 744 249 744Q258 744 264 737T271 720Q271 717 269 711L28 -37Q25 -46 19 -51Z" />
<glyph unicode="0" glyph-name="zero" horiz-adv-x="600" d="M184 -8T123 83T62 352Q62 530 122 621T300 713Q417 713 477 622T538 353Q538 176 477 84T300 -8Q184 -8 123 83ZM398 34T445 112T493 353Q493 516 446 593T300 671Q202 671 155 594T107 353Q107 191
154 113T300 34Q398 34 445 112Z" />
<glyph unicode="1" glyph-name="one" horiz-adv-x="600" d="M492 38T497 33T503 19Q503 10 498 5T484 0H160Q152 0 147 5T141 19Q141 27 146 32T160 38H301V646L180 564Q176 561 171 561Q163 561 156 569T149 587Q149 598 158 604L307 705Q314 710 322 710Q330
710 336 704T342 687V38H484Q492 38 497 33Z" />
<glyph unicode="2" glyph-name="two" horiz-adv-x="600" d="M525 38T530 33T536 19Q536 10 531 5T517 0H113Q103 0 97 5T91 20Q91 28 97 34L349 318Q406 383 431 432T456 533Q456 600 417 636T306 673Q253 673 205 654T107 590Q99 583 90 583Q84 583 80 588T76
602Q76 615 86 625Q125 665 184 689T306 713Q395 713 447 665T499 534Q499 473 471 415T377 284L154 38H517Q525 38 530 33Z" />
<glyph unicode="3" glyph-name="three" horiz-adv-x="600" d="M446 345T479 301T513 190Q513 99 455 46T298 -7Q233 -7 174 17T75 81Q65 91 65 104Q65 112 69 118T79 124Q87 124 96 116Q146 71 194 52T299 33Q380 33 425 73T470 187Q470 262 423 300T285 339H235Q224
339 218 345T212 359Q212 366 218 372T235 378H270Q357 378 406 420T455 539Q455 603 416 638T306 673Q253 673 205 654T107 590Q98 582 90 582Q84 582 80 588T76 602Q76 615 86 625Q125 665 184 689T306 713Q395 713 447 666T499 538Q499 475 468 428T380 362Q446
345 479 301Z" />
<glyph unicode="4" glyph-name="four" horiz-adv-x="600" d="M548 205T553 200T559 186Q559 177 554 172T540 166H444V18Q444 8 439 2T423 -5Q413 -5 408 1T402 18V166H86L85 164V166H77Q67 166 61 171T55 185Q55 193 61 202L405 701Q411 710 424 710Q432 710
438 704T444 687V205H540Q548 205 553 200ZM113 205H402V623L113 205Z" />
<glyph unicode="5" glyph-name="five" horiz-adv-x="600" d="M386 435T436 407T513 329T541 213Q541 150 513 100T435 21T319 -7Q257 -7 198 17T99 81Q89 91 89 104Q89 112 93 118T103 124Q112 124 121 116Q171 71 219 52T320 33Q401 33 448 82T496 214Q496 295
449 344T322 394Q269 394 228 372T159 306Q155 297 148 293T132 288Q123 288 117 294T111 311V685Q111 693 116 699T132 705H501Q509 705 514 700T520 685Q520 678 515 672T501 666H152V356Q181 394 224 414T318 435Q386 435 436 407Z" />
<glyph unicode="6" glyph-name="six" horiz-adv-x="599" d="M383 434T433 407T512 329T540 213Q540 150 512 100T434 21T321 -8Q198 -8 132 80T65 331Q65 513 133 613T325 713Q383 713 438 689T533 625Q544 614 544 602Q544 594 540 588T530 582Q521 582 512 590Q420
673 324 673Q222 673 165 583T108 330V292Q130 358 186 396T317 434Q383 434 433 407ZM399 32T447 82T495 214Q495 295 447 344T318 394Q265 394 223 371T158 307T134 214Q134 132 185 82T319 32Q399 32 447 82Z" />
<glyph unicode="7" glyph-name="seven" horiz-adv-x="600" d="M514 705T519 700T525 687Q525 679 521 671L176 6Q171 -6 157 -6Q149 -6 143 -1T137 14Q137 20 140 26L473 667H92Q85 667 80 672T75 686Q75 695 80 700T92 705H493L494 707V705H504Q514 705 519 700Z" />
<glyph unicode="8" glyph-name="eight" horiz-adv-x="600" d="M472 342T507 296T543 184Q543 94 481 44T300 -7Q182 -7 120 43T57 184Q57 249 92 296T190 361Q136 381 105 425T73 527Q73 613 132 663T300 713Q409 713 468 663T527 527Q527 469 495 425T409 361Q472
342 507 296ZM118 457T164 418T300 378Q389 378 435 417T482 527Q482 596 436 634T300 673Q211 673 165 635T118 527Q118 457 164 418ZM498 33T498 185Q498 337 300 337Q102 337 102 185Q102 33 300 33Q498 33 498 185Z" />
<glyph unicode="9" glyph-name="nine" horiz-adv-x="600" d="M402 713T468 625T535 374Q535 192 467 92T275 -8Q217 -8 162 16T67 80Q56 91 56 103Q56 111 60 117T70 123Q79 123 88 115Q180 32 276 32Q378 32 435 122T492 375V413Q470 347 414 309T283 271Q217
271 167 298T88 376T60 492Q60 555 88 605T166 684T279 713Q402 713 468 625ZM335 311T377 334T442 398T466 491Q466 573 415 623T281 673Q201 673 153 623T105 491Q105 410 153 361T282 311Q335 311 377 334Z" />
<glyph unicode=":" glyph-name="colon" horiz-adv-x="212" d="M89 416T78 426T67 455Q67 473 78 484T106 495Q122 495 133 484T144 455Q144 437 133 427T106 416Q89 416 78 426ZM89 -5T78 6T67 35Q67 53 78 64T106 75Q122 75 133 64T144 35Q144 17 133 6T106 -5Q89
-5 78 6Z" />
<glyph unicode=";" glyph-name="semicolon" horiz-adv-x="212" d="M89 416T78 426T67 455Q67 473 78 484T106 495Q122 495 133 484T144 455Q144 437 133 427T106 416Q89 416 78 426ZM123 75T133 61T144 16Q144 -47 106 -90Q97 -99 88 -99Q81 -99 76 -94T71 -81Q71
-72 77 -66Q89 -53 94 -39T102 -4Q87 -3 77 7T67 35Q67 53 77 64T105 75Q123 75 133 61Z" />
<glyph unicode="&lt;" glyph-name="less" horiz-adv-x="600" d="M544 75T544 64Q544 56 538 51T522 46Q513 46 506 50L73 255Q56 263 56 284Q56 302 73 310L506 515Q513 519 522 519Q531 519 537 514T544 501Q544 490 533 484L106 283L533 81Q544 75 544 64Z" />
<glyph unicode="=" glyph-name="equal" horiz-adv-x="600" d="M75 363T69 369T62 385Q62 392 68 397T84 403H528Q537 403 543 397T550 381Q550 374 544 369T528 363H84Q75 363 69 369ZM75 419T69 425T62 441Q62 448 68 453T84 459H528Q537 459 543 453T550 437Q550
430 544 425T528 419H84Q75 419 69 425Z" />
<glyph unicode="&gt;" glyph-name="greater" horiz-adv-x="600" d="M544 302T544 284Q544 263 527 255L94 50Q87 46 78 46Q69 46 63 51T56 64Q56 75 67 81L494 283L67 484Q56 490 56 501Q56 509 62 514T78 519Q87 519 94 515L527 310Q544 302 544 284Z" />
<glyph unicode="?" glyph-name="question" horiz-adv-x="429" d="M191 157T187 161T183 173Q183 241 207 290T278 399Q316 449 334 484T353 562Q353 613 317 642T217 672Q165 672 123 653T27 590Q25 587 20 584T10 581Q4 581 0 587T-4 601Q-4 614 6 624Q45 664
102 688T215 712Q297 712 347 672T397 563Q397 510 376 471T310 377Q265 322 240 277T210 171Q208 157 197 157Q191 157 187 161ZM179 -5T169 6T158 35Q158 52 168 63T196 75Q213 75 223 64T234 35Q234 18 224 7T196 -5Q179 -5 169 6Z" />
<glyph unicode="@" glyph-name="at" horiz-adv-x="919" d="M344 -148T250 -95T104 54T53 277Q53 405 107 503T257 656T469 710Q596 710 685 656T820 518T865 346Q865 242 835 179T759 90T667 64Q613 64 585 87T555 156H553Q529 114 489 89T399 64Q338 64 298 108T257
236Q257 303 283 363T357 460T469 498Q520 498 557 472T603 408H604L615 469Q616 477 622 482T636 487Q646 487 651 481T655 464L608 194Q605 176 605 162Q605 127 622 114T675 101Q709 101 742 125T799 204T823 346Q823 422 784 496T665 618T469 667Q363 667 278
619T144 483T95 277Q95 161 140 75T269 -58T470 -105Q556 -105 620 -79T724 -8Q737 8 751 8Q760 8 765 1T771 -15Q771 -26 764 -34Q715 -89 640 -118T470 -148Q344 -148 250 -95ZM462 101T503 134T565 220T587 332Q587 394 556 427T471 460Q418 460 379 429T318
347T296 241Q296 172 328 137T407 101Q462 101 503 134Z" />
<glyph unicode="A" glyph-name="A" horiz-adv-x="714" d="M678 14T678 12Q678 4 673 0T659 -5Q644 -5 638 9L557 195H158L76 9Q70 -5 56 -5Q45 -5 39 2T37 20L333 695Q339 711 357 711Q365 711 371 707T381 695L676 20Q678 14 678 12ZM175 235H539L357 651L175 235Z" />
<glyph unicode="B" glyph-name="B" horiz-adv-x="665" d="M528 346T561 302T595 191Q595 97 536 49T367 0H121Q111 0 104 7T96 22V683Q96 692 103 698T121 705H356Q463 705 521 658T579 520Q579 462 550 422T467 361Q528 346 561 302ZM138 378H351Q441 378 488
416T535 526Q535 666 351 666H138V378ZM460 39T505 75T551 186Q551 261 505 299T366 338H138V39H366Q460 39 505 75Z" />
<glyph unicode="C" glyph-name="C" horiz-adv-x="677" d="M285 -8T214 35T105 160T67 353Q67 464 105 545T214 669T382 713Q449 713 510 689T613 623Q623 613 623 599Q623 591 619 586T609 580Q601 580 592 588Q535 636 489 654T380 672Q253 672 183 588T112 353Q112
201 182 117T380 33Q443 33 489 51T592 117Q603 125 609 125Q615 125 619 120T623 106Q623 92 613 82Q572 40 511 16T382 -8Q285 -8 214 35Z" />
<glyph unicode="D" glyph-name="D" horiz-adv-x="725" d="M111 0T104 7T96 22V683Q96 692 103 698T121 705H313Q478 705 568 615T658 353Q658 183 568 92T313 0H121Q111 0 104 7ZM312 38Q466 38 539 119T613 353Q613 667 312 667H137V38H312Z" />
<glyph unicode="E" glyph-name="E" horiz-adv-x="576" d="M111 0T104 7T96 22V683Q96 692 103 698T121 705H506Q514 705 519 700T524 685Q524 677 519 672T506 666H138V377H486Q494 377 499 372T504 358Q504 349 499 344T486 338H138V39H506Q514 39 519 34T524
20Q524 11 519 6T506 0H121Q111 0 104 7Z" />
<glyph unicode="F" glyph-name="F" horiz-adv-x="548" d="M107 -5T102 1T96 18V683Q96 692 103 698T121 705H496Q504 705 509 700T514 686Q514 677 509 672T496 666H137V377H476Q484 377 489 372T494 358Q494 349 489 344T476 339H137V18Q137 -5 117 -5Q107 -5 102 1Z" />
<glyph unicode="G" glyph-name="G" horiz-adv-x="716" d="M617 355T622 350T628 334V55Q628 50 625 45T616 36Q575 16 515 4T390 -8Q289 -8 217 34T106 158T67 353Q67 464 105 545T214 669T383 713Q453 713 515 689T616 623Q626 610 626 599Q626 591 622 586T611
580Q603 580 594 588Q537 636 491 654T383 672Q254 672 184 589T113 353Q113 198 184 115T390 32Q445 32 497 42T589 70V315H413Q402 315 396 321T390 335Q390 344 396 349T413 355H608Q617 355 622 350Z" />
<glyph unicode="H" glyph-name="H" horiz-adv-x="751" d="M138 377H612V339H138V18Q138 8 133 2T117 -5Q107 -5 102 1T96 18V687Q96 697 101 703T117 710Q127 710 132 704T138 687V377ZM644 710T649 704T655 687V18Q655 8 650 2T634 -5Q624 -5 619 1T613 18V687Q613
697 618 703T634 710Q644 710 649 704Z" />
<glyph unicode="I" glyph-name="I" horiz-adv-x="233" d="M107 -5T102 1T96 18V687Q96 697 101 703T117 710Q126 710 131 704T137 687V18Q137 8 132 2T117 -5Q107 -5 102 1Z" />
<glyph unicode="J" glyph-name="J" horiz-adv-x="297" d="M14 -5Q3 -5 -2 0T-8 13Q-8 21 -2 26T15 33L43 35Q103 39 131 71T160 179V687Q160 696 166 703T181 710Q201 710 201 687V177Q201 88 164 45T48 -3L19 -5H14Z" />
<glyph unicode="K" glyph-name="K" horiz-adv-x="599" d="M577 25T577 15Q577 7 571 1T557 -5Q551 -5 547 -1L137 340V18Q137 8 132 2T117 -5Q107 -5 102 1T96 18V687Q96 697 101 703T117 710Q126 710 131 704T137 687V374L525 704Q532 709 538 709Q546 709 551
704T557 690Q557 681 549 675L177 358L568 32Q577 25 577 15Z" />
<glyph unicode="L" glyph-name="L" horiz-adv-x="527" d="M110 0T103 6T96 19V687Q96 697 101 703T117 710Q137 710 137 687V38H498Q505 38 510 33T516 19Q516 11 511 6T498 0H118Q110 0 103 6Z" />
<glyph unicode="M" glyph-name="M" horiz-adv-x="840" d="M733 710T738 704T744 687V19Q744 -5 722 -5Q704 -5 704 19V617L446 118Q442 110 436 106T421 101Q404 101 396 118L136 613V19Q136 -5 116 -5Q96 -5 96 19V687Q96 697 101 703T118 710Q124 710 129 707T139
693L421 150L700 693Q705 703 710 706T722 710Q733 710 738 704Z" />
<glyph unicode="N" glyph-name="N" horiz-adv-x="732" d="M636 710T636 687V18Q636 8 631 2T615 -5Q608 -5 604 -2T595 8L135 634V18Q135 8 130 2T115 -5Q96 -5 96 18V687Q96 697 101 703T118 710Q125 710 128 708T138 698L597 72V687Q597 697 602 703T617 710Q636
710 636 687Z" />
<glyph unicode="O" glyph-name="O" horiz-adv-x="751" d="M281 -8T212 35T105 160T67 352Q67 463 104 544T210 669T375 713Q470 713 540 670T647 545T684 353Q684 242 647 161T540 36T375 -8Q281 -8 212 35ZM501 33T570 117T639 353Q639 505 571 588T375 672Q250
672 181 589T112 353Q112 201 181 117T375 33Q501 33 570 117Z" />
<glyph unicode="P" glyph-name="P" horiz-adv-x="632" d="M107 -5T102 1T96 18V683Q96 692 103 698T121 705H350Q459 705 519 653T579 505Q579 409 519 356T350 303H137V18Q137 7 132 1T117 -5Q107 -5 102 1ZM349 343Q442 343 488 384T535 505Q535 585 489 625T349
666H137V343H349Z" />
<glyph unicode="Q" glyph-name="Q" horiz-adv-x="751" d="M599 -158Q602 -164 602 -169Q602 -176 598 -180T586 -184Q570 -184 558 -165L501 -74Q482 -42 449 -25T375 -8Q281 -8 212 35T105 160T67 352Q67 463 104 544T210 669T375 713Q470 713 539 670T646 545T684
353Q684 217 628 126T471 4Q492 -3 508 -20T544 -68L599 -158ZM112 201T181 117T375 33Q501 33 570 117T639 353Q639 505 571 588T375 672Q250 672 181 589T112 353Q112 201 181 117Z" />
<glyph unicode="R" glyph-name="R" horiz-adv-x="677" d="M615 18T615 13Q615 6 610 1T596 -5Q586 -5 579 5L443 226Q413 276 380 294T287 312H137V18Q137 8 132 2T117 -5Q107 -5 102 1T96 18V683Q96 692 103 698T121 705H368Q477 705 536 656T596 510Q596 424
544 375T396 319Q419 311 438 292T478 241L612 24Q615 18 615 13ZM369 352Q552 352 552 511Q552 589 507 627T369 666H138V352H369Z" />
<glyph unicode="S" glyph-name="S" horiz-adv-x="598" d="M232 -8T164 16T56 82Q47 91 47 106Q47 114 51 119T61 125Q68 125 79 117Q178 33 305 33Q402 33 454 72T507 185Q507 227 481 253T417 292T315 321Q228 342 182 358T100 412T63 518Q63 576 93 620T179
689T307 713Q376 713 437 689T537 623Q547 612 547 599Q547 591 543 586T532 580Q523 580 515 588Q458 637 413 654T307 672Q212 672 159 631T106 516Q106 472 129 444T189 400T281 370L324 360Q396 344 441 328T517 276T549 182Q549 126 519 83T433 16T305 -8Q232
-8 164 16Z" />
<glyph unicode="T" glyph-name="T" horiz-adv-x="584" d="M282 -5T277 1T271 18V667H26Q18 667 13 672T8 686Q8 694 13 699T26 705H557Q564 705 570 700T576 686Q576 677 570 672T557 667H313V18Q313 8 308 2T292 -5Q282 -5 277 1Z" />
<glyph unicode="U" glyph-name="U" horiz-adv-x="715" d="M226 -8T159 61T91 267V687Q91 698 96 704T112 710Q121 710 126 704T132 687V260Q132 33 358 33Q469 33 526 90T583 260V687Q583 697 589 703T604 710Q613 710 619 704T625 687V267Q625 131 557 62T358
-8Q226 -8 159 61Z" />
<glyph unicode="V" glyph-name="V" horiz-adv-x="670" d="M623 712T635 712Q645 712 651 705T654 686L358 12Q352 -5 335 -5Q328 -5 322 -1T311 12L16 686Q14 692 14 693Q14 701 20 706T35 712Q47 712 53 699L335 54L617 699Q623 712 635 712Z" />
<glyph unicode="W" glyph-name="W" horiz-adv-x="1093" d="M1017 710T1030 710Q1040 710 1047 703T1051 686L814 12Q808 -5 791 -5Q784 -5 778 -1T769 12L547 639L324 12Q318 -5 301 -5Q294 -5 288 -1T279 12L41 686Q40 688 40 691Q40 699 47 704T62 710Q75 710
79 698L301 60L522 689Q525 698 531 702T546 707Q563 707 570 688L791 60L1013 698Q1017 710 1030 710Z" />
<glyph unicode="X" glyph-name="X" horiz-adv-x="630" d="M602 23T602 15Q602 7 596 2T582 -4Q573 -4 565 5L314 330L64 5Q57 -4 47 -4Q39 -4 33 1T27 15Q27 21 32 29L291 362L47 676Q42 682 42 690Q42 698 48 703T61 709Q69 709 77 700L314 393L552 700Q560 709
568 709Q576 709 582 704T588 690Q588 684 583 676L339 362L597 29Q602 23 602 15Z" />
<glyph unicode="Y" glyph-name="Y" horiz-adv-x="581" d="M546 709T554 709Q561 709 566 703T572 690Q572 684 567 676L311 342V18Q311 8 306 2T290 -5Q280 -5 275 1T269 18V343L13 676Q9 681 9 689Q9 697 14 703T27 709Q36 709 43 700L291 377L538 700Q546 709 554 709Z" />
<glyph unicode="Z" glyph-name="Z" horiz-adv-x="579" d="M534 39T539 34T545 19Q545 11 540 6T526 0H66L65 -2V0H60Q50 0 45 5T39 18Q39 27 45 36L481 666H57Q50 666 45 671T39 686Q39 694 44 699T57 705H508L509 707V705H514Q524 705 530 700T536 687Q536 679
530 671L93 39H526Q534 39 539 34Z" />
<glyph unicode="[" glyph-name="bracketleft" horiz-adv-x="281" d="M112 -180T112 -95V620Q112 705 194 705H258Q269 705 275 700T281 687Q281 678 275 673T258 668H199Q154 668 154 622V-97Q154 -143 199 -143H258Q269 -143 275 -148T281 -162Q281 -170 275
-175T258 -180H194Q112 -180 112 -95Z" />
<glyph unicode="\" glyph-name="backslash" horiz-adv-x="256" d="M-13 711Q-15 717 -15 721Q-15 731 -9 737T6 743Q22 743 28 725L269 -23Q271 -29 271 -33Q271 -43 265 -49T250 -55Q233 -55 227 -37L-13 711Z" />
<glyph unicode="]" glyph-name="bracketright" horiz-adv-x="281" d="M12 -180T6 -175T0 -162Q0 -153 6 -148T23 -143H82Q127 -143 127 -97V622Q127 668 82 668H23Q12 668 6 673T0 687Q0 695 6 700T23 705H87Q127 705 148 683T169 620V-95Q169 -136 148 -158T87
-180H23Q12 -180 6 -175Z" />
<glyph unicode="^" glyph-name="asciicircum" horiz-adv-x="600" d="M537 164T537 159Q537 150 531 145T518 140Q508 140 503 149L300 576L97 149Q93 140 83 140Q76 140 70 145T64 159Q64 166 66 170L275 612Q284 628 300 628Q307 628 314 624T325 612L534 170Q537
164 537 159Z" />
<glyph unicode="_" glyph-name="underscore" horiz-adv-x="500" d="M10 -33T5 -28T0 -17Q0 -11 5 -6T19 0H481Q490 0 495 -5T500 -17Q500 -23 495 -28T481 -33H19Q10 -33 5 -28Z" />
<glyph unicode="`" glyph-name="grave" horiz-adv-x="300" d="M-13 702Q-27 716 -27 731Q-27 742 -20 749T-3 756Q13 756 27 738L160 567Q164 563 164 557Q164 552 160 548T150 544Q144 544 139 549L-13 702Z" />
<glyph unicode="a" glyph-name="a" horiz-adv-x="521" d="M438 496T438 317V19Q438 8 433 2T417 -4Q407 -4 401 2T395 19V89Q373 43 332 18T237 -7Q191 -7 153 12T92 64T69 138Q69 192 97 221T191 264T375 277H395V319Q395 390 367 422T277 455Q229 455 192 443T132
414Q128 411 116 403T95 394Q88 394 83 399T77 413Q77 432 112 453Q147 474 188 485T271 496Q438 496 438 317ZM282 35T318 56T374 116T395 202V238H376Q271 238 216 230T139 201T117 140Q117 94 151 65T237 35Q282 35 318 56Z" />
<glyph unicode="b" glyph-name="b" horiz-adv-x="565" d="M361 496T410 465T486 378T513 247Q513 171 486 114T410 25T297 -7Q236 -7 193 20T127 98V19Q127 -4 106 -4Q96 -4 91 2T85 19V687Q85 710 106 710Q116 710 121 704T127 687V392Q149 442 192 469T297 496Q361
496 410 465ZM377 34T422 90T467 247Q467 346 422 400T296 455Q215 455 171 400T127 245Q127 144 171 89T297 34Q377 34 422 90Z" />
<glyph unicode="c" glyph-name="c" horiz-adv-x="470" d="M207 -7T157 24T80 112T52 243Q52 318 79 375T157 464T273 496Q310 496 345 487T407 457Q426 442 433 433T441 412Q441 405 436 400T424 394Q419 394 412 398T397 409Q370 430 343 443T274 456Q191 456
144 399T97 242Q97 144 143 89T273 34Q315 34 344 47T401 81Q420 95 427 95Q434 95 439 90T444 78Q444 68 437 60T410 36Q384 17 346 5T271 -7Q207 -7 157 24Z" />
<glyph unicode="d" glyph-name="d" horiz-adv-x="565" d="M469 710T474 704T480 687V19Q480 8 475 2T459 -4Q438 -4 438 19V98Q416 47 373 20T268 -7Q204 -7 155 24T79 113T52 247Q52 322 79 378T155 465T268 496Q329 496 372 469T438 392V687Q438 710 459 710Q469
710 474 704ZM349 34T393 89T438 245Q438 345 394 400T269 455Q188 455 143 401T97 247Q97 147 142 91T268 34Q349 34 393 89Z" />
<glyph unicode="e" glyph-name="e" horiz-adv-x="524" d="M459 95T464 90T469 77Q469 67 462 58T435 36Q363 -7 286 -7Q177 -7 115 60T52 244Q52 319 80 376T159 464T276 496Q368 496 421 436T474 272Q474 254 467 246T442 238H98Q99 140 147 87T284 34Q332 34
363 47T425 81Q446 95 452 95Q459 95 464 90ZM200 457T154 410T99 277H434Q432 364 391 410T276 457Q200 457 154 410Z" />
<glyph unicode="f" glyph-name="f" horiz-adv-x="302" d="M210 662T179 629T147 525V484H280Q287 484 292 479T297 465Q297 458 293 453T280 448H147V18Q147 8 141 2T126 -5Q116 -5 111 1T105 18V448H22Q15 448 10 453T5 465Q5 473 10 478T22 484H105V513Q105
600 145 649T265 704L291 706H299Q319 706 319 689Q319 671 296 669L270 667Q210 662 179 629Z" />
<glyph unicode="g" glyph-name="g" horiz-adv-x="569" d="M472 494T478 488T484 472V23Q484 -81 435 -134T289 -187Q235 -187 194 -177T115 -144Q96 -132 88 -123T80 -103Q80 -95 85 -90T98 -85Q103 -85 124 -97Q159 -118 196 -132T291 -146Q365 -146 404 -105T443
17V122Q422 70 378 43T270 15Q206 15 157 45T80 130T52 256Q52 327 79 381T156 466T270 496Q332 496 376 469T442 392V471Q442 494 463 494Q472 494 478 488ZM351 56T396 109T442 256Q442 349 397 402T270 455Q190 455 144 402T97 256Q97 162 143 109T270 56Q351
56 396 109Z" />
<glyph unicode="h" glyph-name="h" horiz-adv-x="553" d="M381 496T425 450T470 312V18Q470 7 465 1T449 -5Q439 -5 434 1T428 18V307Q428 385 397 420T297 456Q220 456 174 409T127 282V18Q127 7 122 1T106 -5Q97 -5 91 1T85 18V687Q85 698 90 704T106 710Q116
710 121 704T127 687V399Q149 446 193 471T294 496Q381 496 425 450Z" />
<glyph unicode="i" glyph-name="i" horiz-adv-x="212" d="M96 -5T91 1T85 18V472Q85 482 90 488T106 494Q116 494 121 488T127 472V18Q127 7 122 1T106 -5Q96 -5 91 1ZM91 614T80 624T69 650Q69 667 79 677T106 687Q122 687 132 677T143 650Q143 634 132 624T106
614Q91 614 80 624Z" />
<glyph unicode="j" glyph-name="j" horiz-adv-x="212" d="M-50 -182Q-72 -182 -72 -164Q-72 -147 -50 -145L-23 -143Q33 -139 59 -110T85 -12V472Q85 482 90 488T106 494Q116 494 121 488T127 472V-12Q127 -96 93 -135T-17 -180L-44 -182H-50ZM91 614T80 624T69
650Q69 667 79 677T106 687Q122 687 132 677T143 650Q143 634 132 624T106 614Q91 614 80 624Z" />
<glyph unicode="k" glyph-name="k" horiz-adv-x="468" d="M444 24T444 13Q444 6 439 1T426 -5Q419 -5 410 1L127 239V18Q127 8 121 2T106 -5Q96 -5 91 1T85 18V687Q85 698 90 704T106 710Q115 710 121 704T127 687V258L387 486Q395 492 402 492Q410 492 416 486T422
472Q422 463 412 454L178 249L432 34Q444 24 444 13Z" />
<glyph unicode="l" glyph-name="l" horiz-adv-x="212" d="M96 -5T91 1T85 18V687Q85 698 90 704T106 710Q115 710 121 704T127 687V18Q127 8 121 2T106 -5Q96 -5 91 1Z" />
<glyph unicode="m" glyph-name="m" horiz-adv-x="834" d="M751 496T751 312V18Q751 8 746 2T730 -5Q720 -5 715 1T709 18V307Q709 385 681 420T592 456Q522 456 481 409T439 282V18Q439 8 434 2T418 -5Q408 -5 403 1T397 18V307Q397 385 369 420T280 456Q209 456
168 409T127 282V18Q127 8 122 2T106 -5Q96 -5 91 1T85 18V471Q85 494 106 494Q116 494 121 488T126 471V399Q146 446 185 471T279 496Q396 496 429 399Q449 444 492 470T591 496Q751 496 751 312Z" />
<glyph unicode="n" glyph-name="n" horiz-adv-x="553" d="M470 496T470 312V18Q470 -5 449 -5Q439 -5 434 1T428 18V308Q428 385 397 420T297 456Q220 456 174 409T127 282V18Q127 7 122 1T106 -5Q96 -5 91 1T85 18V471Q85 494 106 494Q116 494 121 488T126 471V397Q148
445 192 470T294 496Q470 496 470 312Z" />
<glyph unicode="o" glyph-name="o" horiz-adv-x="536" d="M204 -7T155 24T79 112T52 245Q52 320 79 377T155 465T268 496Q332 496 381 465T457 377T484 245Q484 169 457 112T381 24T268 -7Q204 -7 155 24ZM350 34T394 88T439 245Q439 344 394 399T268 455Q188
455 143 400T97 245Q97 143 141 89T267 34Q350 34 394 88Z" />
<glyph unicode="p" glyph-name="p" horiz-adv-x="565" d="M361 496T410 465T486 376T513 243Q513 168 486 112T410 24T297 -7Q236 -7 193 20T127 98V-162Q127 -173 122 -179T106 -185Q85 -185 85 -162V472Q85 482 90 488T106 494Q116 494 121 488T127 472V393Q149
443 192 469T297 496Q361 496 410 465ZM377 34T422 88T467 243Q467 343 422 399T297 455Q215 455 171 401T127 245Q127 144 171 89T296 34Q377 34 422 88Z" />
<glyph unicode="q" glyph-name="q" horiz-adv-x="565" d="M469 494T474 488T480 472V-162Q480 -173 475 -179T459 -185Q438 -185 438 -162V98Q416 47 373 20T268 -7Q204 -7 155 24T79 111T52 243Q52 319 79 376T155 464T268 496Q329 496 372 470T438 393V472Q438
482 443 488T459 494Q469 494 474 488ZM350 34T394 89T438 245Q438 346 394 400T268 455Q188 455 143 399T97 243Q97 144 142 89T269 34Q350 34 394 89Z" />
<glyph unicode="r" glyph-name="r" horiz-adv-x="326" d="M304 494Q316 494 320 490T325 476Q325 459 304 456L274 453Q201 446 164 399T127 291V18Q127 7 122 1T106 -5Q96 -5 91 1T85 18V471Q85 494 106 494Q115 494 121 488T127 471V399Q170 485 283 493L297 494H304Z" />
<glyph unicode="s" glyph-name="s" horiz-adv-x="476" d="M197 -7T158 4T88 36Q68 49 61 57T54 77Q54 84 59 89T71 95Q76 95 84 90T96 82Q125 61 156 48T236 34Q301 34 336 58T371 126Q371 152 359 169T318 198T236 223Q148 243 110 274T72 356Q72 418 120 457T246
496Q283 496 317 486T377 458Q396 444 404 434T413 412Q413 405 408 400T396 394Q388 394 370 409Q344 429 316 442T244 455Q188 455 154 429T119 359Q119 333 130 317T167 288T243 265Q312 248 349 231T401 189T417 126Q417 66 368 30T236 -7Q197 -7 158 4Z" />
<glyph unicode="t" glyph-name="t" horiz-adv-x="314" d="M305 32T305 14Q305 -8 276 -5L250 -3Q175 2 140 42T105 168V448H22Q15 448 10 453T5 465Q5 473 10 478T22 484H105V617Q105 628 111 634T126 640Q135 640 141 634T147 617V484H280Q287 484 292 479T297
465Q297 458 293 453T280 448H147V167Q147 99 173 70T256 36L283 34Q305 32 305 14Z" />
<glyph unicode="u" glyph-name="u" d="M449 494T454 488T460 472V18Q460 -5 439 -5Q430 -5 425 1T419 18V91Q396 44 353 19T254 -7Q170 -7 127 40T83 178V472Q83 482 88 488T104 494Q114 494 119 488T125 472V182Q125 106 156 70T252 34Q327 34 372 81T418 208V472Q418
482 423 488T439 494Q449 494 454 488Z" />
<glyph unicode="v" glyph-name="v" horiz-adv-x="504" d="M451 494T464 494Q472 494 478 489T484 474Q484 471 482 465L279 17Q270 -1 251 -1Q242 -1 235 3T224 17L22 465L20 473Q20 482 27 488T43 495Q56 495 60 483L252 49L445 480Q451 494 464 494Z" />
<glyph unicode="w" glyph-name="w" horiz-adv-x="830" d="M760 493T772 493Q782 493 789 485T792 467L624 17Q617 -1 598 -1Q589 -1 582 3T572 17L415 426L260 17Q256 8 249 4T233 -1Q224 -1 217 3T206 17L38 465Q34 476 42 485T62 494Q75 494 79 481L233 58L392
476Q396 485 402 489T416 494Q424 494 430 490T440 476L597 59L754 478Q760 493 772 493Z" />
<glyph unicode="x" glyph-name="x" horiz-adv-x="506" d="M470 27T470 18Q470 9 464 3T450 -3Q441 -3 433 6L253 217L74 6Q65 -3 56 -3Q48 -3 42 3T36 18Q36 27 43 35L226 248L49 456Q42 464 42 473Q42 482 48 488T62 494Q71 494 79 485L253 279L427 485Q435 494
444 494Q452 494 458 488T465 473Q465 464 458 456L280 248L463 35Q470 27 470 18Z" />
<glyph unicode="y" glyph-name="y" horiz-adv-x="504" d="M451 494T464 494Q472 494 478 489T484 474Q484 471 482 465L195 -171Q189 -183 177 -183Q169 -183 164 -178T158 -165L160 -157L232 1L22 465Q20 471 20 474Q20 483 27 489T43 495Q54 495 60 483L253
48L255 53L445 480Q451 494 464 494Z" />
<glyph unicode="z" glyph-name="z" horiz-adv-x="496" d="M443 37T448 32T453 19Q453 11 448 6T436 0H73Q61 0 55 6T48 21Q48 29 56 40L385 448H67Q59 448 54 453T49 465Q49 473 54 478T67 484H420Q432 484 438 479T445 464Q445 454 438 446L108 37H436Q443 37 448 32Z" />
<glyph unicode="{" glyph-name="braceleft" horiz-adv-x="318" d="M306 -143T312 -148T318 -162Q318 -170 312 -175T295 -180H231Q149 -180 149 -95V162Q149 204 132 223T73 244Q61 245 56 250T50 263Q50 281 73 282Q115 284 132 303T149 364V620Q149 705 231
705H295Q306 705 312 700T318 687Q318 678 312 673T295 668H236Q191 668 191 622V361Q191 318 172 294T123 263Q152 257 171 233T191 165V-97Q191 -143 236 -143H295Q306 -143 312 -148Z" />
<glyph unicode="|" glyph-name="bar" horiz-adv-x="245" d="M114 -185T108 -179T101 -162V687Q101 697 107 703T123 710Q131 710 137 704T144 687V-162Q144 -172 138 -178T123 -185Q114 -185 108 -179Z" />
<glyph unicode="}" glyph-name="braceright" horiz-adv-x="318" d="M268 281T268 263Q268 256 262 251T245 244Q203 243 187 224T171 162L169 -95Q169 -136 148 -158T87 -180H23Q12 -180 6 -175T0 -162Q0 -153 6 -148T23 -143H82Q127 -143 127 -97V165Q127 208
146 232T195 263Q166 269 147 293T127 361V622Q127 668 82 668H23Q12 668 6 673T0 687Q0 695 6 700T23 705H87Q127 705 148 683T169 620V364Q169 322 186 303T245 282Q268 281 268 263Z" />
<glyph unicode="~" glyph-name="asciitilde" horiz-adv-x="600" d="M386 221T354 234T281 270Q243 290 223 298T183 307Q130 307 101 257Q95 244 82 244Q78 244 72 246Q63 251 63 262Q63 268 66 274Q105 345 181 345Q214 345 246 332T319 296Q357 276 377 268T417
259Q470 259 499 309Q505 322 518 322Q522 322 528 320Q537 317 537 305Q537 299 533 292Q494 221 419 221Q386 221 354 234Z" />
<glyph unicode="&#xa0;" glyph-name="uni00A0" horiz-adv-x="246" />
<glyph unicode="&#xa1;" glyph-name="exclamdown" horiz-adv-x="212" d="M89 414T78 425T67 454Q67 472 78 483T105 494Q122 494 133 483T144 454Q144 436 133 425T105 414Q89 414 78 425ZM95 -185T88 -178T81 -160L93 315V317Q93 324 96 328T106 332Q112 332
116 327T120 315L132 -160Q132 -171 125 -178T106 -185Q95 -185 88 -178Z" />
<glyph unicode="&#xa2;" glyph-name="cent" horiz-adv-x="600" d="M482 95T487 90T492 78Q492 68 485 60T457 36Q434 19 402 8T337 -6V-96Q337 -107 332 -113T316 -120Q307 -120 301 -113T295 -96V-6Q207 3 153 70T99 243Q99 313 123 368T192 456T295 495V585Q295
595 301 602T316 609Q326 609 331 603T337 585V495Q408 492 454 457Q474 442 481 433T488 412Q488 405 483 400T471 394Q463 394 445 409Q416 431 390 443T321 456Q238 456 191 399T144 242Q144 144 190 89T320 34Q362 34 391 47T448 80Q456 86 463 90T475 95Q482
95 487 90Z" />
<glyph unicode="&#xa3;" glyph-name="sterling" horiz-adv-x="600" d="M548 38T553 33T559 19Q559 11 554 6T540 0H66Q58 0 53 5T47 19Q47 27 52 32T66 38H163V333H67Q58 333 53 339T47 353Q47 361 52 367T67 373H163V525Q163 612 209 662T340 713Q459 713 549
623Q559 613 559 599Q559 591 555 586T545 580Q538 580 528 588Q470 638 429 655T339 673Q278 673 242 637T205 521V373H380Q389 373 394 368T400 353Q400 344 395 339T380 333H205V38H540Q548 38 553 33Z" />
<glyph unicode="&#xa4;" glyph-name="currency" horiz-adv-x="600" d="M102 37T96 43T89 58Q89 66 97 74L139 116Q116 143 105 178T94 250Q94 327 138 381L96 425Q89 431 89 439Q89 448 95 454T111 460Q119 460 124 454L167 411Q220 454 300 454Q378 454 434 411L477
454Q482 460 490 460Q499 460 505 454T512 438Q512 431 506 425L462 381Q507 324 507 250Q507 214 496 179T462 116L507 72Q512 67 512 59Q512 50 505 44T489 37Q483 37 477 43L432 87Q381 45 300 45Q224 45 168 86L124 42Q119 37 110 37Q102 37 96 43ZM349 90T383
113T435 172T453 250Q453 291 436 327T384 387T300 410Q252 410 217 387T164 328T146 250Q146 209 164 172T217 113T300 90Q349 90 383 113Z" />
<glyph unicode="&#xa5;" glyph-name="yen" horiz-adv-x="600" d="M558 709T566 709Q573 709 578 704T584 690Q584 683 580 676L349 375H508Q517 375 522 369T528 355Q528 347 523 341T508 335H321V225H508Q517 225 522 219T528 205Q528 197 523 191T508 185H321V18Q321
8 316 2T300 -5Q290 -5 285 1T279 18V185H92Q83 185 78 191T72 205Q72 213 77 219T92 225H279V335H92Q83 335 78 341T72 355Q72 363 77 369T92 375H252L20 676Q15 683 15 689Q15 697 20 703T34 709Q43 709 50 700L300 375H301L550 700Q558 709 566 709Z" />
<glyph unicode="&#xa6;" glyph-name="brokenbar" horiz-adv-x="245" d="M114 366T108 372T101 389V687Q101 697 107 703T123 710Q131 710 137 704T144 687V389Q144 379 138 373T123 366Q114 366 108 372ZM114 -185T108 -179T101 -162V136Q101 146 107 152T123
159Q131 159 137 153T144 136V-162Q144 -172 138 -178T123 -185Q114 -185 108 -179Z" />
<glyph unicode="&#xa7;" glyph-name="section" horiz-adv-x="513" d="M466 144T452 112T413 57Q427 25 427 -21Q427 -95 379 -141T251 -187Q208 -187 168 -176T98 -144Q78 -130 71 -122T64 -103Q64 -96 69 -91T81 -85Q88 -85 106 -98Q135 -119 168 -132T251 -146Q315
-146 349 -113T384 -19Q384 30 360 63T279 125L202 165Q117 208 82 249T47 349Q47 383 61 416T99 471Q87 500 87 546Q87 622 135 667T264 712Q348 712 400 673Q419 659 427 649T435 627Q435 620 430 615T418 610Q412 610 404 616T393 624Q365 645 336 658T262 671Q198
671 164 638T129 544Q129 495 152 464T234 401L311 360Q396 316 431 275T466 175Q466 144 452 112ZM361 126T390 92Q422 129 422 182Q422 220 396 249T302 315L231 354Q151 397 122 433Q91 396 91 343Q91 306 117 277T211 210L281 171Q361 126 390 92Z" />
<glyph unicode="&#xa8;" glyph-name="dieresis" horiz-adv-x="300" d="M55 615T45 625T34 650Q34 665 44 675T70 685Q85 685 95 675T105 650Q105 635 95 625T70 615Q55 615 45 625ZM216 615T206 625T195 650Q195 665 205 675T230 685Q245 685 255 675T266 650Q266
635 256 625T230 615Q216 615 206 625Z" />
<glyph unicode="&#xa9;" glyph-name="copyright" horiz-adv-x="815" d="M308 -5T226 42T97 171T50 353Q50 453 97 534T226 663T408 710Q508 710 589 663T718 535T765 353Q765 253 718 172T589 43T408 -5Q308 -5 226 42ZM497 30T570 73T686 190T728 353Q728 442
686 516T571 632T408 675Q318 675 245 633T129 516T87 353Q87 264 129 190T245 73T408 30Q497 30 570 73ZM323 137T270 195T217 353Q217 453 270 510T412 568Q485 568 550 517Q559 511 559 499Q559 492 555 486T545 480Q541 480 531 486Q495 511 471 521T412 532Q340
532 301 485T262 353Q262 268 301 221T412 173Q447 173 471 183T531 219Q541 225 545 225Q551 225 555 219T559 206Q559 197 550 188Q526 163 490 150T412 137Q323 137 270 195Z" />
<glyph unicode="&#xaa;" glyph-name="ordfeminine" horiz-adv-x="325" d="M272 710T272 598V431Q272 421 266 416T251 410Q242 410 236 415T230 431V459Q217 436 194 423T142 410Q97 410 67 435T37 496Q37 529 54 547T109 574T217 582H230V602Q230 641 214 658T165
675Q119 675 82 652Q78 650 71 645T59 640Q53 640 49 645T45 658Q45 674 66 685Q113 710 165 710Q272 710 272 598ZM181 445T205 470T230 536V554H219Q162 554 133 549T93 532T82 501Q82 477 100 461T145 445Q181 445 205 470Z" />
<glyph unicode="&#xab;" glyph-name="guillemotleft" horiz-adv-x="394" d="M61 251Q57 261 57 265Q57 270 61 278L144 422Q151 435 164 435Q171 435 176 431T181 419Q181 413 179 410L104 265L179 119Q181 116 181 110Q181 103 176 99T164 95Q151 95 144 108L61
251ZM219 251Q215 261 215 265Q215 270 219 278L302 422Q309 435 322 435Q329 435 334 431T339 419Q339 413 337 410L262 265L337 119Q339 116 339 110Q339 103 334 99T322 95Q309 95 302 108L219 251Z" />
<glyph unicode="&#xac;" glyph-name="logicalnot" horiz-adv-x="600" d="M516 157T512 163T508 179V370H78Q69 370 63 376T56 391Q56 398 62 403T78 409H522Q531 409 537 403T544 387V179Q544 170 538 164T522 157Q516 157 512 163Z" />
<glyph unicode="&#xad;" glyph-name="uni00AD" horiz-adv-x="416" d="M83 246T78 251T72 265Q72 273 77 278T92 284H325Q334 284 339 279T344 265Q344 257 339 252T325 246H92Q83 246 78 251Z" />
<glyph unicode="&#xae;" glyph-name="registered" horiz-adv-x="815" d="M508 710T589 663T718 535T765 353Q765 253 718 172T589 43T408 -5Q308 -5 226 42T97 171T50 353Q50 453 97 534T226 663T408 710Q508 710 589 663ZM497 30T570 73T686 190T728 353Q728
442 686 516T571 632T408 675Q318 675 245 633T129 516T87 353Q87 264 129 190T245 73T408 30Q497 30 570 73ZM582 163Q585 157 585 151Q585 144 580 140T567 135Q552 135 544 150L466 276Q450 302 432 311T382 321H313V158Q313 137 292 137Q283 137 277 142T271
158V541Q271 551 277 557T293 563H435Q498 563 535 533T572 443Q572 391 542 361T459 326Q474 321 485 310T509 280L582 163ZM430 359Q479 359 504 378T530 443Q530 488 505 507T430 527H313V359H430Z" />
<glyph unicode="&#xaf;" glyph-name="overscore" horiz-adv-x="300" d="M16 629T8 634T0 650Q0 672 29 672H271Q300 672 300 650Q300 640 292 635T271 629H29Q16 629 8 634Z" />
<glyph unicode="&#xb0;" glyph-name="degree" horiz-adv-x="364" d="M143 426T111 444T60 495T41 568Q41 608 59 640T110 691T182 710Q221 710 253 692T303 641T322 568Q322 528 304 496T253 445T182 426Q143 426 111 444ZM225 466T252 494T280 568Q280 613 253
641T182 670Q139 670 112 642T84 568Q84 523 111 495T182 466Q225 466 252 494Z" />
<glyph unicode="&#xb1;" glyph-name="plusminus" horiz-adv-x="600" d="M78 301Q69 301 63 307T56 322Q56 329 62 334T78 340H281V506Q281 515 287 521T302 528Q309 528 314 522T319 506V340H522Q531 340 537 334T544 318Q544 311 538 306T522 301H319V136Q319
126 313 120T298 113Q291 113 286 119T281 134V301H78ZM537 40T543 34T550 18Q550 11 544 6T528 0H84Q75 0 69 6T62 22Q62 29 68 34T84 40H528Q537 40 543 34Z" />
<glyph unicode="&#xb2;" glyph-name="uni00B2" horiz-adv-x="380" d="M331 319T331 300Q331 282 312 282H74Q65 282 60 287T55 301Q55 311 62 318L207 480Q239 515 253 542T267 598Q267 634 246 653T186 672Q159 672 133 660T76 627Q68 620 60 620Q54 620 50 626T46
640Q46 650 54 658Q80 680 116 694T187 709Q245 709 277 679T310 599Q310 563 293 529T239 454L115 319H312Q331 319 331 300Z" />
<glyph unicode="&#xb3;" glyph-name="uni00B3" horiz-adv-x="380" d="M277 489T297 463T317 397Q317 341 280 310T182 279Q146 279 110 293T47 330Q39 338 39 348Q39 356 43 361T53 367Q62 367 69 361Q129 317 181 317Q225 317 250 336T276 398Q276 479 175 479H144Q135
479 130 484T125 497Q125 504 130 509T144 515H165Q212 515 238 536T265 598Q265 634 244 653T185 672Q158 672 132 660T75 627Q67 620 59 620Q53 620 49 626T45 640Q45 651 53 658Q78 680 114 694T185 709Q243 709 275 679T308 601Q308 564 289 538T241 499Q277
489 297 463Z" />
<glyph unicode="&#xb4;" glyph-name="acute" horiz-adv-x="300" d="M156 544T150 544Q145 544 141 548T136 558Q136 563 140 567L273 738Q285 756 303 756Q313 756 320 749T327 731Q327 716 313 702L161 549Q156 544 150 544Z" />
<glyph unicode="&#xb5;" glyph-name="uni00B5" d="M448 494T454 488T460 472V18Q460 -5 439 -5Q430 -5 425 1T419 18V91Q396 44 353 19T254 -7Q172 -7 125 37V-162Q125 -185 104 -185Q95 -185 89 -179T83 -162V472Q83 482 89 488T104 494Q113 494 119 488T125
472V182Q125 102 157 68T252 34Q324 34 371 79T418 208V472Q418 482 424 488T439 494Q448 494 454 488Z" />
<glyph unicode="&#xb6;" glyph-name="paragraph" horiz-adv-x="556" d="M253 -185T246 -178T239 -160V335Q184 335 142 359T76 425T53 520Q53 573 76 615T141 681T240 705H435Q446 705 453 698T460 680V-160Q460 -170 453 -177T436 -185Q426 -185 419 -178T412
-160V660H287V-160Q287 -170 280 -177T263 -185Q253 -185 246 -178Z" />
<glyph unicode="&#xb7;" glyph-name="middot" horiz-adv-x="212" d="M89 225T78 236T67 265Q67 283 78 294T106 305Q122 305 133 294T144 265Q144 247 133 236T106 225Q89 225 78 236Z" />
<glyph unicode="&#xb8;" glyph-name="cedilla" horiz-adv-x="300" d="M221 -41T243 -58T265 -110Q265 -145 236 -167T156 -190Q119 -190 90 -178Q82 -175 78 -170T74 -158Q74 -151 79 -147T94 -142Q100 -142 104 -143Q133 -151 160 -151Q192 -151 207 -140T223
-110Q223 -96 214 -88T189 -79Q176 -79 159 -84T136 -90Q129 -90 123 -85T117 -72L127 20H169L162 -46Q175 -41 191 -41Q221 -41 243 -58Z" />
<glyph unicode="&#xb9;" glyph-name="uni00B9" horiz-adv-x="380" d="M302 319T307 314T313 300Q313 292 308 287T293 282H136Q127 282 122 287T116 300Q116 309 121 314T136 319H195V655L134 614Q129 611 126 611Q119 611 114 618T108 634Q108 643 115 649L197
703Q203 708 214 708Q223 708 229 703T235 687V319H293Q302 319 307 314Z" />
<glyph unicode="&#xba;" glyph-name="ordmasculine" horiz-adv-x="325" d="M100 410T63 450T26 560Q26 629 63 669T161 710Q222 710 260 670T298 560Q298 491 260 451T161 410Q100 410 63 450ZM254 445T254 560Q254 615 231 645T161 675Q116 675 93 645T69 560Q69
504 92 475T161 445Q254 445 254 560Z" />
<glyph unicode="&#xbb;" glyph-name="guillemotright" horiz-adv-x="394" d="M84 96T71 96Q64 96 60 99T55 110Q55 116 57 119L131 265L57 410Q54 415 54 420Q54 427 59 431T71 435Q84 435 91 422L175 278Q179 273 179 265Q179 258 175 251L91 108Q84 96 71 96ZM242
96T229 96Q222 96 218 99T213 110Q213 116 215 119L289 265L215 410Q212 415 212 420Q212 427 217 431T229 435Q242 435 249 422L333 278Q337 273 337 265Q337 258 333 251L249 108Q242 96 229 96Z" />
<glyph unicode="&#xbc;" glyph-name="onequarter" horiz-adv-x="918" d="M302 319T307 314T313 300Q313 292 308 287T293 282H136Q127 282 122 287T116 300Q116 309 121 314T136 319H195V655L134 614Q130 611 126 611Q119 611 114 618T108 634Q108 643 115 649L197
703Q203 708 214 708Q223 708 229 703T235 687V319H293Q302 319 307 314ZM272 -16T258 -16Q250 -16 244 -10T238 5Q238 12 242 19L639 707Q646 721 660 721Q668 721 674 715T681 700Q681 693 677 686L279 -2Q272 -16 258 -16ZM891 131T891 112Q891 94 870 94H823V19Q823
9 817 3T801 -3Q790 -3 784 3T778 19V94H598Q589 94 584 99T578 112Q578 120 583 128L783 417Q789 426 802 426Q810 426 816 421T823 405V131H870Q891 131 891 112ZM630 131H778V345L630 131Z" />
<glyph unicode="&#xbd;" glyph-name="onehalf" horiz-adv-x="918" d="M302 319T307 314T313 300Q313 292 308 287T293 282H136Q127 282 122 287T116 300Q116 309 121 314T136 319H195V655L134 614Q130 611 126 611Q119 611 114 618T108 634Q108 643 115 649L197
703Q203 708 214 708Q223 708 229 703T235 687V319H293Q302 319 307 314ZM272 -16T258 -16Q250 -16 244 -10T238 5Q238 12 242 19L639 707Q646 721 660 721Q668 721 674 715T681 700Q681 693 677 686L279 -2Q272 -16 258 -16ZM869 37T869 18Q869 0 850 0H612Q603
0 598 5T593 19Q593 29 600 36L745 198Q777 233 791 260T805 316Q805 352 784 371T724 390Q697 390 671 378T614 345Q606 338 598 338Q592 338 588 344T584 358Q584 368 592 376Q618 398 654 412T725 427Q783 427 815 397T848 317Q848 281 831 247T777 172L653
37H850Q869 37 869 18Z" />
<glyph unicode="&#xbe;" glyph-name="threequarters" horiz-adv-x="918" d="M277 489T297 463T317 397Q317 341 280 310T182 279Q146 279 110 293T47 330Q39 338 39 348Q39 356 43 361T53 367Q62 367 69 361Q129 317 181 317Q225 317 250 336T276 398Q276 479
175 479H144Q135 479 130 484T125 497Q125 504 130 509T144 515H165Q212 515 238 536T265 598Q265 634 244 653T185 672Q158 672 132 660T75 627Q67 620 59 620Q53 620 49 626T45 640Q45 651 53 658Q78 680 114 694T185 709Q243 709 275 679T308 601Q308 564 289
538T241 499Q277 489 297 463ZM272 -16T258 -16Q250 -16 244 -10T238 5Q238 12 242 19L639 707Q646 721 660 721Q668 721 674 715T681 700Q681 693 677 686L279 -2Q272 -16 258 -16ZM891 131T891 112Q891 94 870 94H823V19Q823 9 817 3T801 -3Q790 -3 784 3T778
19V94H598Q589 94 584 99T578 112Q578 120 583 128L783 417Q789 426 802 426Q810 426 816 421T823 405V131H870Q891 131 891 112ZM630 131H778V345L630 131Z" />
<glyph unicode="&#xbf;" glyph-name="questiondown" horiz-adv-x="429" d="M216 414T205 425T194 454Q194 472 204 483T232 494Q249 494 260 483T271 454Q271 437 260 426T232 414Q216 414 205 425ZM131 -187T81 -147T31 -41Q31 12 53 48T118 129Q164 177 189
217T219 318Q219 324 223 328T232 332Q245 332 245 316Q245 269 232 233T200 170T151 110Q112 66 94 35T75 -41Q75 -89 112 -118T212 -147Q264 -147 306 -128T401 -64Q404 -61 409 -59T419 -56Q425 -56 429 -62T433 -76Q433 -88 423 -99Q383 -139 327 -163T214
-187Q131 -187 81 -147Z" />
<glyph unicode="&#xc0;" glyph-name="Agrave" horiz-adv-x="714" d="M678 14T678 12Q678 4 673 0T659 -5Q644 -5 638 9L557 195H158L76 9Q70 -5 56 -5Q45 -5 39 2T37 20L333 695Q339 711 357 711Q365 711 371 707T381 695L676 20Q678 14 678 12ZM175 235H539L357
651L175 235ZM223 867Q208 881 208 895Q208 905 215 912T233 919Q249 919 260 905L366 784Q370 779 370 773Q370 768 366 764T356 760Q350 760 346 764L223 867Z" />
<glyph unicode="&#xc1;" glyph-name="Aacute" horiz-adv-x="714" d="M678 14T678 12Q678 4 673 0T659 -5Q644 -5 638 9L557 195H158L76 9Q70 -5 56 -5Q45 -5 39 2T37 20L333 695Q339 711 357 711Q365 711 371 707T381 695L676 20Q678 14 678 12ZM175 235H539L357
651L175 235ZM364 760T358 760Q352 760 348 764T344 774Q344 780 348 784L454 905Q465 919 480 919Q491 919 498 912T505 895Q505 880 491 867L368 764Q364 760 358 760Z" />
<glyph unicode="&#xc2;" glyph-name="Acircumflex" horiz-adv-x="714" d="M678 14T678 12Q678 4 673 0T659 -5Q644 -5 638 9L557 195H158L76 9Q70 -5 56 -5Q45 -5 39 2T37 20L333 695Q339 711 357 711Q365 711 371 707T381 695L676 20Q678 14 678 12ZM175 235H539L357
651L175 235ZM257 760T248 760Q239 760 233 766T227 782Q227 792 234 800L328 905Q341 919 357 919Q372 919 386 905L480 800Q487 792 487 782Q487 773 481 767T466 760Q457 760 450 768L357 877L264 768Q257 760 248 760Z" />
<glyph unicode="&#xc3;" glyph-name="Atilde" horiz-adv-x="714" d="M678 14T678 12Q678 4 673 0T659 -5Q644 -5 638 9L557 195H158L76 9Q70 -5 56 -5Q45 -5 39 2T37 20L333 695Q339 711 357 711Q365 711 371 707T381 695L676 20Q678 14 678 12ZM175 235H539L357
651L175 235ZM408 796T390 803T345 823Q305 844 289 844Q269 844 259 836T238 812Q229 798 223 798Q216 798 211 803T206 816Q206 831 216 848T245 876T289 887Q306 887 324 880T369 860Q409 839 425 839Q445 839 455 847T476 870Q485 884 491 884Q498 884 503
879T508 866Q508 841 485 819T425 796Q408 796 390 803Z" />
<glyph unicode="&#xc4;" glyph-name="Adieresis" horiz-adv-x="714" d="M678 14T678 12Q678 4 673 0T659 -5Q644 -5 638 9L557 195H158L76 9Q70 -5 56 -5Q45 -5 39 2T37 20L333 695Q339 711 357 711Q365 711 371 707T381 695L676 20Q678 14 678 12ZM175 235H539L357
651L175 235ZM262 806T252 816T241 841Q241 856 251 866T277 876Q291 876 301 866T312 841Q312 826 302 816T277 806Q262 806 252 816ZM422 806T412 816T402 841Q402 856 412 866T437 876Q452 876 462 866T473 841Q473 826 463 816T437 806Q422 806 412 816Z" />
<glyph unicode="&#xc5;" glyph-name="Aring" horiz-adv-x="714" d="M678 14T678 13Q678 5 672 0T658 -5Q644 -5 638 9L557 195H158L76 9Q70 -5 56 -5Q46 -5 40 2T37 20L327 681Q297 690 279 714T260 770Q260 810 288 837T357 865Q397 865 425 838T453 770Q453
739 435 715T387 681L676 20Q678 14 678 13ZM306 748T320 733T357 717Q379 717 393 732T408 770Q408 793 394 808T357 823Q335 823 321 808T306 770Q306 748 320 733ZM175 235H539L357 651L175 235Z" />
<glyph unicode="&#xc6;" glyph-name="AE" horiz-adv-x="986" d="M924 40T929 35T934 20Q934 11 929 6T916 0H598Q581 0 573 28L538 195H169L57 9Q49 -5 34 -5Q26 -5 21 -1T16 10Q16 14 19 20L428 695Q433 702 438 703T453 705H916Q924 705 929 700T934 685Q934
676 929 671T916 665H478L539 377H896Q904 377 909 372T914 358Q914 349 909 344T896 338H547L610 40H916Q924 40 929 35ZM193 235H530L443 649L193 235Z" />
<glyph unicode="&#xc7;" glyph-name="Ccedilla" horiz-adv-x="677" d="M615 125T619 120T623 106Q623 92 613 82Q574 41 516 18T392 -8L388 -46Q401 -41 417 -41Q447 -41 469 -58T491 -110Q491 -145 462 -167T382 -190Q345 -190 316 -178Q308 -175 304 -170T300
-158Q300 -151 305 -147T320 -142Q326 -142 330 -143Q359 -151 386 -151Q418 -151 433 -140T449 -110Q449 -96 440 -88T415 -79Q402 -79 385 -84T362 -90Q355 -90 349 -85T343 -72L350 -7Q217 4 142 99T67 353Q67 464 105 545T214 669T382 713Q449 713 510 689T613
623Q623 613 623 599Q623 591 619 586T609 580Q601 580 592 588Q535 636 489 654T380 672Q253 672 183 588T112 353Q112 201 182 117T380 33Q443 33 489 51T592 117Q603 125 609 125Q615 125 619 120Z" />
<glyph unicode="&#xc8;" glyph-name="Egrave" horiz-adv-x="576" d="M111 0T104 7T96 22V683Q96 692 103 698T121 705H506Q514 705 519 700T524 685Q524 677 519 672T506 666H138V377H486Q494 377 499 372T504 358Q504 349 499 344T486 338H138V39H506Q514 39
519 34T524 20Q524 11 519 6T506 0H121Q111 0 104 7ZM186 867Q171 881 171 895Q171 905 178 912T196 919Q212 919 223 905L329 784Q333 779 333 773Q333 768 329 764T319 760Q313 760 309 764L186 867Z" />
<glyph unicode="&#xc9;" glyph-name="Eacute" horiz-adv-x="576" d="M111 0T104 7T96 22V683Q96 692 103 698T121 705H506Q514 705 519 700T524 685Q524 677 519 672T506 666H138V377H486Q494 377 499 372T504 358Q504 349 499 344T486 338H138V39H506Q514 39
519 34T524 20Q524 11 519 6T506 0H121Q111 0 104 7ZM327 760T321 760Q315 760 311 764T307 774Q307 780 311 784L417 905Q428 919 443 919Q454 919 461 912T468 895Q468 880 454 867L331 764Q327 760 321 760Z" />
<glyph unicode="&#xca;" glyph-name="Ecircumflex" horiz-adv-x="576" d="M111 0T104 7T96 22V683Q96 692 103 698T121 705H506Q514 705 519 700T524 685Q524 677 519 672T506 666H138V377H486Q494 377 499 372T504 358Q504 349 499 344T486 338H138V39H506Q514
39 519 34T524 20Q524 11 519 6T506 0H121Q111 0 104 7ZM220 760T211 760Q202 760 196 766T190 782Q190 792 197 800L291 905Q304 919 320 919Q335 919 349 905L443 800Q450 792 450 782Q450 773 444 767T429 760Q420 760 413 768L320 877L227 768Q220 760 211
760Z" />
<glyph unicode="&#xcb;" glyph-name="Edieresis" horiz-adv-x="576" d="M111 0T104 7T96 22V683Q96 692 103 698T121 705H506Q514 705 519 700T524 685Q524 677 519 672T506 666H138V377H486Q494 377 499 372T504 358Q504 349 499 344T486 338H138V39H506Q514
39 519 34T524 20Q524 11 519 6T506 0H121Q111 0 104 7ZM225 806T215 816T204 841Q204 856 214 866T240 876Q254 876 264 866T275 841Q275 826 265 816T240 806Q225 806 215 816ZM385 806T375 816T365 841Q365 856 375 866T400 876Q415 876 425 866T436 841Q436
826 426 816T400 806Q385 806 375 816Z" />
<glyph unicode="&#xcc;" glyph-name="Igrave" horiz-adv-x="233" d="M107 -5T102 1T96 18V687Q96 697 101 703T117 710Q126 710 131 704T137 687V18Q137 8 132 2T117 -5Q107 -5 102 1ZM-17 867Q-32 881 -32 895Q-32 905 -25 912T-7 919Q9 919 20 905L126 784Q130
779 130 773Q130 768 126 764T116 760Q110 760 106 764L-17 867Z" />
<glyph unicode="&#xcd;" glyph-name="Iacute" horiz-adv-x="233" d="M107 -5T102 1T96 18V687Q96 697 101 703T117 710Q126 710 131 704T137 687V18Q137 8 132 2T117 -5Q107 -5 102 1ZM124 760T118 760Q112 760 108 764T104 774Q104 780 108 784L214 905Q225 919
240 919Q251 919 258 912T265 895Q265 880 251 867L128 764Q124 760 118 760Z" />
<glyph unicode="&#xce;" glyph-name="Icircumflex" horiz-adv-x="233" d="M107 -5T102 1T96 18V687Q96 697 101 703T117 710Q126 710 131 704T137 687V18Q137 8 132 2T117 -5Q107 -5 102 1ZM17 760T8 760Q-1 760 -7 766T-13 782Q-13 792 -6 800L88 905Q101 919
117 919Q132 919 146 905L240 800Q247 792 247 782Q247 773 241 767T226 760Q217 760 210 768L117 877L24 768Q17 760 8 760Z" />
<glyph unicode="&#xcf;" glyph-name="Idieresis" horiz-adv-x="233" d="M107 -5T102 1T96 18V687Q96 697 101 703T117 710Q126 710 131 704T137 687V18Q137 8 132 2T117 -5Q107 -5 102 1ZM22 806T12 816T1 841Q1 856 11 866T37 876Q51 876 61 866T72 841Q72 826
62 816T37 806Q22 806 12 816ZM182 806T172 816T162 841Q162 856 172 866T197 876Q212 876 222 866T233 841Q233 826 223 816T197 806Q182 806 172 816Z" />
<glyph unicode="&#xd0;" glyph-name="Eth" horiz-adv-x="729" d="M482 705T572 615T662 353Q662 183 572 92T317 0H125Q115 0 108 7T100 22V340H19Q11 340 6 344T0 358Q0 367 5 372T19 377H100V683Q100 692 107 698T125 705H317Q482 705 572 615ZM470 38T543 119T617
353Q617 667 316 667H141V377H324Q332 377 336 372T341 358Q341 340 324 340H141V38H316Q470 38 543 119Z" />
<glyph unicode="&#xd1;" glyph-name="Ntilde" horiz-adv-x="732" d="M636 710T636 687V18Q636 8 631 2T615 -5Q608 -5 604 -2T595 8L135 634V18Q135 8 130 2T115 -5Q96 -5 96 18V687Q96 697 101 703T118 710Q125 710 128 708T138 698L597 72V687Q597 697 602 703T617
710Q636 710 636 687ZM417 796T399 803T354 823Q314 844 298 844Q278 844 268 836T247 812Q238 798 232 798Q225 798 220 803T215 816Q215 831 225 848T254 876T298 887Q315 887 333 880T378 860Q418 839 434 839Q454 839 464 847T485 870Q494 884 500 884Q507
884 512 879T517 866Q517 841 494 819T434 796Q417 796 399 803Z" />
<glyph unicode="&#xd2;" glyph-name="Ograve" horiz-adv-x="751" d="M281 -8T212 35T105 160T67 352Q67 463 104 544T210 669T375 713Q470 713 540 670T647 545T684 353Q684 242 647 161T540 36T375 -8Q281 -8 212 35ZM501 33T570 117T639 353Q639 505 571 588T375
672Q250 672 181 589T112 353Q112 201 181 117T375 33Q501 33 570 117ZM241 867Q226 881 226 895Q226 905 233 912T251 919Q267 919 278 905L384 784Q388 779 388 773Q388 768 384 764T374 760Q368 760 364 764L241 867Z" />
<glyph unicode="&#xd3;" glyph-name="Oacute" horiz-adv-x="751" d="M281 -8T212 35T105 160T67 352Q67 463 104 544T210 669T375 713Q470 713 540 670T647 545T684 353Q684 242 647 161T540 36T375 -8Q281 -8 212 35ZM501 33T570 117T639 353Q639 505 571 588T375
672Q250 672 181 589T112 353Q112 201 181 117T375 33Q501 33 570 117ZM382 760T376 760Q370 760 366 764T362 774Q362 780 366 784L472 905Q483 919 498 919Q509 919 516 912T523 895Q523 880 509 867L386 764Q382 760 376 760Z" />
<glyph unicode="&#xd4;" glyph-name="Ocircumflex" horiz-adv-x="751" d="M281 -8T212 35T105 160T67 352Q67 463 104 544T210 669T375 713Q470 713 540 670T647 545T684 353Q684 242 647 161T540 36T375 -8Q281 -8 212 35ZM501 33T570 117T639 353Q639 505 571
588T375 672Q250 672 181 589T112 353Q112 201 181 117T375 33Q501 33 570 117ZM275 760T266 760Q257 760 251 766T245 782Q245 792 252 800L346 905Q359 919 375 919Q390 919 404 905L498 800Q505 792 505 782Q505 773 499 767T484 760Q475 760 468 768L375 877L282
768Q275 760 266 760Z" />
<glyph unicode="&#xd5;" glyph-name="Otilde" horiz-adv-x="751" d="M281 -8T212 35T105 160T67 352Q67 463 104 544T210 669T375 713Q470 713 540 670T647 545T684 353Q684 242 647 161T540 36T375 -8Q281 -8 212 35ZM501 33T570 117T639 353Q639 505 571 588T375
672Q250 672 181 589T112 353Q112 201 181 117T375 33Q501 33 570 117ZM426 796T408 803T363 823Q323 844 307 844Q287 844 277 836T256 812Q247 798 241 798Q234 798 229 803T224 816Q224 831 234 848T263 876T307 887Q324 887 342 880T387 860Q427 839 443 839Q463
839 473 847T494 870Q503 884 509 884Q516 884 521 879T526 866Q526 841 503 819T443 796Q426 796 408 803Z" />
<glyph unicode="&#xd6;" glyph-name="Odieresis" horiz-adv-x="751" d="M281 -8T212 35T105 160T67 352Q67 463 104 544T210 669T375 713Q470 713 540 670T647 545T684 353Q684 242 647 161T540 36T375 -8Q281 -8 212 35ZM501 33T570 117T639 353Q639 505 571
588T375 672Q250 672 181 589T112 353Q112 201 181 117T375 33Q501 33 570 117ZM280 806T270 816T259 841Q259 856 269 866T295 876Q309 876 319 866T330 841Q330 826 320 816T295 806Q280 806 270 816ZM440 806T430 816T420 841Q420 856 430 866T455 876Q470 876
480 866T491 841Q491 826 481 816T455 806Q440 806 430 816Z" />
<glyph unicode="&#xd7;" glyph-name="multiply" horiz-adv-x="600" d="M525 85T525 78Q525 69 517 61Q512 56 507 56Q499 56 490 65L300 255L110 65Q101 58 92 58Q84 58 78 64Q74 70 74 75Q74 84 82 92L272 283L82 474Q75 481 75 490Q75 498 81 504Q85 509 93
509Q103 509 110 502L300 311L490 502Q497 509 506 509Q516 509 522 502Q526 498 526 492Q526 482 518 474L328 283L518 92Q525 85 525 78Z" />
<glyph unicode="&#xd8;" glyph-name="Oslash" horiz-adv-x="751" d="M625 602T654 527T684 353Q684 242 647 161T540 36T375 -8Q283 -8 212 35L180 -20Q174 -30 164 -30Q156 -30 150 -25T144 -12Q144 -7 147 -2L182 57Q126 104 97 179T67 352Q67 463 104 544T210
669T375 713Q468 713 539 670L572 727Q577 735 587 735Q595 735 601 730T607 717Q607 711 605 708L570 648Q625 602 654 527ZM112 266T135 201T203 94L518 635Q458 672 375 672Q250 672 181 589T112 353Q112 266 135 201ZM501 33T570 117T639 353Q639 441 616 506T549
611L233 71Q292 33 375 33Q501 33 570 117Z" />
<glyph unicode="&#xd9;" glyph-name="Ugrave" horiz-adv-x="715" d="M226 -8T159 61T91 267V687Q91 698 96 704T112 710Q121 710 126 704T132 687V260Q132 33 358 33Q469 33 526 90T583 260V687Q583 697 589 703T604 710Q613 710 619 704T625 687V267Q625 131
557 62T358 -8Q226 -8 159 61ZM224 867Q209 881 209 895Q209 905 216 912T234 919Q250 919 261 905L367 784Q371 779 371 773Q371 768 367 764T357 760Q351 760 347 764L224 867Z" />
<glyph unicode="&#xda;" glyph-name="Uacute" horiz-adv-x="715" d="M226 -8T159 61T91 267V687Q91 698 96 704T112 710Q121 710 126 704T132 687V260Q132 33 358 33Q469 33 526 90T583 260V687Q583 697 589 703T604 710Q613 710 619 704T625 687V267Q625 131
557 62T358 -8Q226 -8 159 61ZM365 760T359 760Q353 760 349 764T345 774Q345 780 349 784L455 905Q466 919 481 919Q492 919 499 912T506 895Q506 880 492 867L369 764Q365 760 359 760Z" />
<glyph unicode="&#xdb;" glyph-name="Ucircumflex" horiz-adv-x="715" d="M226 -8T159 61T91 267V687Q91 698 96 704T112 710Q121 710 126 704T132 687V260Q132 33 358 33Q469 33 526 90T583 260V687Q583 697 589 703T604 710Q613 710 619 704T625 687V267Q625
131 557 62T358 -8Q226 -8 159 61ZM258 760T249 760Q240 760 234 766T228 782Q228 792 235 800L329 905Q342 919 358 919Q373 919 387 905L481 800Q488 792 488 782Q488 773 482 767T467 760Q458 760 451 768L358 877L265 768Q258 760 249 760Z" />
<glyph unicode="&#xdc;" glyph-name="Udieresis" horiz-adv-x="715" d="M226 -8T159 61T91 267V687Q91 698 96 704T112 710Q121 710 126 704T132 687V260Q132 33 358 33Q469 33 526 90T583 260V687Q583 697 589 703T604 710Q613 710 619 704T625 687V267Q625 131
557 62T358 -8Q226 -8 159 61ZM263 806T253 816T242 841Q242 856 252 866T278 876Q292 876 302 866T313 841Q313 826 303 816T278 806Q263 806 253 816ZM423 806T413 816T403 841Q403 856 413 866T438 876Q453 876 463 866T474 841Q474 826 464 816T438 806Q423
806 413 816Z" />
<glyph unicode="&#xdd;" glyph-name="Yacute" horiz-adv-x="581" d="M546 709T554 709Q561 709 566 703T572 690Q572 684 567 676L311 342V18Q311 8 306 2T290 -5Q280 -5 275 1T269 18V343L13 676Q9 681 9 689Q9 697 14 703T27 709Q36 709 43 700L291 377L538
700Q546 709 554 709ZM297 760T291 760Q285 760 281 764T277 774Q277 780 281 784L387 905Q398 919 413 919Q424 919 431 912T438 895Q438 880 424 867L301 764Q297 760 291 760Z" />
<glyph unicode="&#xde;" glyph-name="Thorn" horiz-adv-x="632" d="M466 543T522 496T579 360Q579 272 522 223T361 174H138V18Q138 8 132 2T117 -5Q107 -5 102 1T96 18V687Q96 698 101 704T117 710Q126 710 132 704T138 687V543H361Q466 543 522 496ZM449 214T492
250T535 360Q535 433 492 468T361 504H138V214H361Q449 214 492 250Z" />
<glyph unicode="&#xdf;" glyph-name="germandbls" horiz-adv-x="581" d="M340 -7T302 5T235 36Q215 50 208 58T201 77Q201 84 206 89T218 95Q223 95 232 89T244 81Q273 60 302 47T374 34Q433 34 466 58T500 126Q500 155 484 174T444 204T379 229Q332 245 304 259T257
298T237 363Q237 400 257 426T315 482Q352 512 369 534T387 589Q387 626 360 647T285 668Q209 668 168 624T127 496V18Q127 7 122 1T106 -5Q96 -5 91 1T85 18V495Q85 595 137 652T283 709Q351 709 390 676T430 587Q430 545 409 517T345 452Q313 425 298 407T283
366Q283 339 298 321T337 292T400 266Q447 249 476 234T525 192T546 124Q546 66 498 30T374 -7Q340 -7 302 5Z" />
<glyph unicode="&#xe0;" glyph-name="agrave" horiz-adv-x="521" d="M438 496T438 317V19Q438 8 433 2T417 -4Q407 -4 401 2T395 19V89Q373 43 332 18T237 -7Q191 -7 153 12T92 64T69 138Q69 192 97 221T191 264T375 277H395V319Q395 390 367 422T277 455Q229
455 192 443T132 414Q128 411 116 403T95 394Q88 394 83 399T77 413Q77 432 112 453Q147 474 188 485T271 496Q438 496 438 317ZM282 35T318 56T374 116T395 202V238H376Q271 238 216 230T139 201T117 140Q117 94 151 65T237 35Q282 35 318 56ZM108 702Q94 716
94 731Q94 742 101 749T118 756Q134 756 148 738L281 567Q285 563 285 557Q285 552 281 548T271 544Q265 544 260 549L108 702Z" />
<glyph unicode="&#xe1;" glyph-name="aacute" horiz-adv-x="521" d="M438 496T438 317V19Q438 8 433 2T417 -4Q407 -4 401 2T395 19V89Q373 43 332 18T237 -7Q191 -7 153 12T92 64T69 138Q69 192 97 221T191 264T375 277H395V319Q395 390 367 422T277 455Q229
455 192 443T132 414Q128 411 116 403T95 394Q88 394 83 399T77 413Q77 432 112 453Q147 474 188 485T271 496Q438 496 438 317ZM282 35T318 56T374 116T395 202V238H376Q271 238 216 230T139 201T117 140Q117 94 151 65T237 35Q282 35 318 56ZM277 544T271 544Q266
544 262 548T257 558Q257 563 261 567L394 738Q406 756 424 756Q434 756 441 749T448 731Q448 716 434 702L282 549Q277 544 271 544Z" />
<glyph unicode="&#xe2;" glyph-name="acircumflex" horiz-adv-x="521" d="M438 496T438 317V19Q438 8 433 2T417 -4Q407 -4 401 2T395 19V89Q373 43 332 18T237 -7Q191 -7 153 12T92 64T69 138Q69 192 97 221T191 264T375 277H395V319Q395 390 367 422T277 455Q229
455 192 443T132 414Q128 411 116 403T95 394Q88 394 83 399T77 413Q77 432 112 453Q147 474 188 485T271 496Q438 496 438 317ZM282 35T318 56T374 116T395 202V238H376Q271 238 216 230T139 201T117 140Q117 94 151 65T237 35Q282 35 318 56ZM177 545T164 545Q155
545 149 551T142 567Q142 573 147 581L243 734Q255 753 271 753Q287 753 299 734L395 581Q400 573 400 566Q400 557 393 551T378 544Q365 544 358 557L271 705L184 557Q177 545 164 545Z" />
<glyph unicode="&#xe3;" glyph-name="atilde" horiz-adv-x="521" d="M438 496T438 317V19Q438 8 433 2T417 -4Q407 -4 401 2T395 19V89Q373 43 332 18T237 -7Q191 -7 153 12T92 64T69 138Q69 192 97 221T191 264T375 277H395V319Q395 390 367 422T277 455Q229
455 192 443T132 414Q128 411 116 403T95 394Q88 394 83 399T77 413Q77 432 112 453Q147 474 188 485T271 496Q438 496 438 317ZM282 35T318 56T374 116T395 202V238H376Q271 238 216 230T139 201T117 140Q117 94 151 65T237 35Q282 35 318 56ZM321 596T303 605T260
633Q238 648 225 655T201 662Q183 662 173 652T155 623Q151 615 147 609T137 603Q130 603 125 608T120 621Q120 637 130 657T159 691T203 706Q221 706 239 697T282 669Q304 654 317 647T341 640Q359 640 369 650T387 679Q391 687 395 693T405 699Q412 699 417 694T422
681Q422 665 412 645T383 611T339 596Q321 596 303 605Z" />
<glyph unicode="&#xe4;" glyph-name="adieresis" horiz-adv-x="521" d="M438 496T438 317V19Q438 8 433 2T417 -4Q407 -4 401 2T395 19V89Q373 43 332 18T237 -7Q191 -7 153 12T92 64T69 138Q69 192 97 221T191 264T375 277H395V319Q395 390 367 422T277 455Q229
455 192 443T132 414Q128 411 116 403T95 394Q88 394 83 399T77 413Q77 432 112 453Q147 474 188 485T271 496Q438 496 438 317ZM282 35T318 56T374 116T395 202V238H376Q271 238 216 230T139 201T117 140Q117 94 151 65T237 35Q282 35 318 56ZM176 615T166 625T155
650Q155 665 165 675T191 685Q206 685 216 675T226 650Q226 635 216 625T191 615Q176 615 166 625ZM337 615T327 625T316 650Q316 665 326 675T351 685Q366 685 376 675T387 650Q387 635 377 625T351 615Q337 615 327 625Z" />
<glyph unicode="&#xe5;" glyph-name="aring" horiz-adv-x="521" d="M438 496T438 317V19Q438 8 433 2T417 -4Q407 -4 401 2T395 19V89Q373 43 332 18T237 -7Q191 -7 153 12T92 64T69 138Q69 192 97 221T191 264T375 277H395V319Q395 390 367 422T277 455Q229 455
192 443T132 414Q128 411 116 403T95 394Q88 394 83 399T77 413Q77 432 112 453Q147 474 188 485T271 496Q438 496 438 317ZM282 35T318 56T374 116T395 202V238H376Q271 238 216 230T139 201T117 140Q117 94 151 65T237 35Q282 35 318 56ZM231 556T203 583T174
650Q174 690 202 717T271 745Q311 745 339 718T368 650Q368 611 340 584T271 556Q231 556 203 583ZM293 597T307 612T322 650Q322 673 308 688T271 703Q249 703 235 688T220 650Q220 628 234 613T271 597Q293 597 307 612Z" />
<glyph unicode="&#xe6;" glyph-name="ae" horiz-adv-x="862" d="M798 95T803 90T808 77Q808 56 774 36Q702 -7 629 -7Q552 -7 499 30T422 136Q405 69 358 31T241 -7Q193 -7 154 12T92 64T69 138Q69 192 97 222T193 264T380 277H400V314Q400 388 372 421T281 455Q224
455 189 442T120 407Q101 394 94 394Q87 394 82 399T77 413Q77 433 112 453Q185 496 274 496Q406 496 436 389Q463 440 510 468T617 496Q706 496 759 436T812 272Q812 254 805 246T780 238H444Q445 140 493 87T627 34Q672 34 703 47T763 80Q783 95 791 95Q798 95
803 90ZM544 457T499 409T445 277H771Q770 364 730 410T617 457Q544 457 499 409ZM287 35T323 57T379 118T400 206V238H381Q274 238 219 230T140 201T117 140Q117 94 152 65T242 35Q287 35 323 57Z" />
<glyph unicode="&#xe7;" glyph-name="ccedilla" horiz-adv-x="470" d="M434 95T439 90T444 78Q444 68 437 60T410 36Q386 18 352 7T283 -7L279 -46Q292 -41 308 -41Q338 -41 360 -58T382 -110Q382 -145 353 -167T273 -190Q236 -190 207 -178Q199 -175 195 -170T191
-158Q191 -151 196 -147T211 -142Q217 -142 221 -143Q250 -151 277 -151Q309 -151 324 -140T340 -110Q340 -96 331 -88T306 -79Q293 -79 276 -84T253 -90Q246 -90 240 -85T234 -72L241 -5Q156 6 104 73T52 243Q52 318 79 375T157 464T273 496Q310 496 345 487T407
457Q426 442 433 433T441 412Q441 405 436 400T424 394Q419 394 412 398T397 409Q370 430 343 443T274 456Q191 456 144 399T97 242Q97 144 143 89T273 34Q315 34 344 47T401 81Q420 95 427 95Q434 95 439 90Z" />
<glyph unicode="&#xe8;" glyph-name="egrave" horiz-adv-x="524" d="M459 95T464 90T469 77Q469 67 462 58T435 36Q363 -7 286 -7Q177 -7 115 60T52 244Q52 319 80 376T159 464T276 496Q368 496 421 436T474 272Q474 254 467 246T442 238H98Q99 140 147 87T284
34Q332 34 363 47T425 81Q446 95 452 95Q459 95 464 90ZM200 457T154 410T99 277H434Q432 364 391 410T276 457Q200 457 154 410ZM113 702Q99 716 99 731Q99 742 106 749T123 756Q139 756 153 738L286 567Q290 563 290 557Q290 552 286 548T276 544Q270 544 265
549L113 702Z" />
<glyph unicode="&#xe9;" glyph-name="eacute" horiz-adv-x="524" d="M459 95T464 90T469 77Q469 67 462 58T435 36Q363 -7 286 -7Q177 -7 115 60T52 244Q52 319 80 376T159 464T276 496Q368 496 421 436T474 272Q474 254 467 246T442 238H98Q99 140 147 87T284
34Q332 34 363 47T425 81Q446 95 452 95Q459 95 464 90ZM200 457T154 410T99 277H434Q432 364 391 410T276 457Q200 457 154 410ZM282 544T276 544Q271 544 267 548T262 558Q262 563 266 567L399 738Q411 756 429 756Q439 756 446 749T453 731Q453 716 439 702L287
549Q282 544 276 544Z" />
<glyph unicode="&#xea;" glyph-name="ecircumflex" horiz-adv-x="524" d="M459 95T464 90T469 77Q469 67 462 58T435 36Q363 -7 286 -7Q177 -7 115 60T52 244Q52 319 80 376T159 464T276 496Q368 496 421 436T474 272Q474 254 467 246T442 238H98Q99 140 147 87T284
34Q332 34 363 47T425 81Q446 95 452 95Q459 95 464 90ZM200 457T154 410T99 277H434Q432 364 391 410T276 457Q200 457 154 410ZM182 545T169 545Q160 545 154 551T147 567Q147 573 152 581L248 734Q260 753 276 753Q292 753 304 734L400 581Q405 573 405 566Q405
557 398 551T383 544Q370 544 363 557L276 705L189 557Q182 545 169 545Z" />
<glyph unicode="&#xeb;" glyph-name="edieresis" horiz-adv-x="524" d="M459 95T464 90T469 77Q469 67 462 58T435 36Q363 -7 286 -7Q177 -7 115 60T52 244Q52 319 80 376T159 464T276 496Q368 496 421 436T474 272Q474 254 467 246T442 238H98Q99 140 147 87T284
34Q332 34 363 47T425 81Q446 95 452 95Q459 95 464 90ZM200 457T154 410T99 277H434Q432 364 391 410T276 457Q200 457 154 410ZM181 615T171 625T160 650Q160 665 170 675T196 685Q211 685 221 675T231 650Q231 635 221 625T196 615Q181 615 171 625ZM342 615T332
625T321 650Q321 665 331 675T356 685Q371 685 381 675T392 650Q392 635 382 625T356 615Q342 615 332 625Z" />
<glyph unicode="&#xec;" glyph-name="igrave" horiz-adv-x="212" d="M96 -5T91 1T85 18V472Q85 482 90 488T106 494Q116 494 121 488T127 472V18Q127 7 122 1T106 -5Q96 -5 91 1ZM-57 702Q-71 716 -71 731Q-71 742 -64 749T-47 756Q-31 756 -17 738L116 567Q120
563 120 557Q120 552 116 548T106 544Q100 544 95 549L-57 702Z" />
<glyph unicode="&#xed;" glyph-name="iacute" horiz-adv-x="212" d="M96 -5T91 1T85 18V472Q85 482 90 488T106 494Q116 494 121 488T127 472V18Q127 7 122 1T106 -5Q96 -5 91 1ZM112 544T106 544Q101 544 97 548T92 558Q92 563 96 567L229 738Q241 756 259 756Q269
756 276 749T283 731Q283 716 269 702L117 549Q112 544 106 544Z" />
<glyph unicode="&#xee;" glyph-name="icircumflex" horiz-adv-x="212" d="M96 -5T91 1T85 18V472Q85 482 90 488T106 494Q116 494 121 488T127 472V18Q127 7 122 1T106 -5Q96 -5 91 1ZM12 545T-1 545Q-10 545 -16 551T-23 567Q-23 573 -18 581L78 734Q90 753 106
753Q122 753 134 734L230 581Q235 573 235 566Q235 557 228 551T213 544Q200 544 193 557L106 705L19 557Q12 545 -1 545Z" />
<glyph unicode="&#xef;" glyph-name="idieresis" horiz-adv-x="212" d="M96 -5T91 1T85 18V472Q85 482 90 488T106 494Q116 494 121 488T127 472V18Q127 7 122 1T106 -5Q96 -5 91 1ZM11 615T1 625T-10 650Q-10 665 0 675T26 685Q41 685 51 675T61 650Q61 635 51
625T26 615Q11 615 1 625ZM172 615T162 625T151 650Q151 665 161 675T186 685Q201 685 211 675T222 650Q222 635 212 625T186 615Q172 615 162 625Z" />
<glyph unicode="&#xf0;" glyph-name="eth" horiz-adv-x="539" d="M487 469T487 278Q487 137 432 65T268 -7Q203 -7 154 21T79 102T52 224Q52 293 79 345T156 426T271 455Q386 455 438 370Q417 489 332 574L197 517Q191 515 189 515Q181 515 176 521T170 536Q170
548 182 554L299 603Q251 640 191 665Q168 674 168 690Q168 698 174 703T190 708Q200 708 209 704Q286 671 343 621L456 668Q462 670 465 670Q473 670 479 664T485 650Q485 639 472 633L374 592Q487 469 487 278ZM347 34T393 84T439 225Q439 312 394 363T268 414Q188
414 143 364T97 224Q97 133 141 84T267 34Q347 34 393 84Z" />
<glyph unicode="&#xf1;" glyph-name="ntilde" horiz-adv-x="553" d="M470 496T470 312V18Q470 -5 449 -5Q439 -5 434 1T428 18V308Q428 385 397 420T297 456Q220 456 174 409T127 282V18Q127 7 122 1T106 -5Q96 -5 91 1T85 18V471Q85 494 106 494Q116 494 121
488T126 471V397Q148 445 192 470T294 496Q470 496 470 312ZM327 596T309 605T266 633Q244 648 231 655T207 662Q189 662 179 652T161 623Q157 615 153 609T143 603Q136 603 131 608T126 621Q126 637 136 657T165 691T209 706Q227 706 245 697T288 669Q310 654
323 647T347 640Q365 640 375 650T393 679Q397 687 401 693T411 699Q418 699 423 694T428 681Q428 665 418 645T389 611T345 596Q327 596 309 605Z" />
<glyph unicode="&#xf2;" glyph-name="ograve" horiz-adv-x="536" d="M204 -7T155 24T79 112T52 245Q52 320 79 377T155 465T268 496Q332 496 381 465T457 377T484 245Q484 169 457 112T381 24T268 -7Q204 -7 155 24ZM350 34T394 88T439 245Q439 344 394 399T268
455Q188 455 143 400T97 245Q97 143 141 89T267 34Q350 34 394 88ZM105 702Q91 716 91 731Q91 742 98 749T115 756Q131 756 145 738L278 567Q282 563 282 557Q282 552 278 548T268 544Q262 544 257 549L105 702Z" />
<glyph unicode="&#xf3;" glyph-name="oacute" horiz-adv-x="536" d="M204 -7T155 24T79 112T52 245Q52 320 79 377T155 465T268 496Q332 496 381 465T457 377T484 245Q484 169 457 112T381 24T268 -7Q204 -7 155 24ZM350 34T394 88T439 245Q439 344 394 399T268
455Q188 455 143 400T97 245Q97 143 141 89T267 34Q350 34 394 88ZM274 544T268 544Q263 544 259 548T254 558Q254 563 258 567L391 738Q403 756 421 756Q431 756 438 749T445 731Q445 716 431 702L279 549Q274 544 268 544Z" />
<glyph unicode="&#xf4;" glyph-name="ocircumflex" horiz-adv-x="536" d="M204 -7T155 24T79 112T52 245Q52 320 79 377T155 465T268 496Q332 496 381 465T457 377T484 245Q484 169 457 112T381 24T268 -7Q204 -7 155 24ZM350 34T394 88T439 245Q439 344 394 399T268
455Q188 455 143 400T97 245Q97 143 141 89T267 34Q350 34 394 88ZM174 545T161 545Q152 545 146 551T139 567Q139 573 144 581L240 734Q252 753 268 753Q284 753 296 734L392 581Q397 573 397 566Q397 557 390 551T375 544Q362 544 355 557L268 705L181 557Q174
545 161 545Z" />
<glyph unicode="&#xf5;" glyph-name="otilde" horiz-adv-x="536" d="M204 -7T155 24T79 112T52 245Q52 320 79 377T155 465T268 496Q332 496 381 465T457 377T484 245Q484 169 457 112T381 24T268 -7Q204 -7 155 24ZM350 34T394 88T439 245Q439 344 394 399T268
455Q188 455 143 400T97 245Q97 143 141 89T267 34Q350 34 394 88ZM318 596T300 605T257 633Q235 648 222 655T198 662Q180 662 170 652T152 623Q148 615 144 609T134 603Q127 603 122 608T117 621Q117 637 127 657T156 691T200 706Q218 706 236 697T279 669Q301
654 314 647T338 640Q356 640 366 650T384 679Q388 687 392 693T402 699Q409 699 414 694T419 681Q419 665 409 645T380 611T336 596Q318 596 300 605Z" />
<glyph unicode="&#xf6;" glyph-name="odieresis" horiz-adv-x="536" d="M204 -7T155 24T79 112T52 245Q52 320 79 377T155 465T268 496Q332 496 381 465T457 377T484 245Q484 169 457 112T381 24T268 -7Q204 -7 155 24ZM350 34T394 88T439 245Q439 344 394 399T268
455Q188 455 143 400T97 245Q97 143 141 89T267 34Q350 34 394 88ZM173 615T163 625T152 650Q152 665 162 675T188 685Q203 685 213 675T223 650Q223 635 213 625T188 615Q173 615 163 625ZM334 615T324 625T313 650Q313 665 323 675T348 685Q363 685 373 675T384
650Q384 635 374 625T348 615Q334 615 324 625Z" />
<glyph unicode="&#xf7;" glyph-name="divide" horiz-adv-x="600" d="M282 444T270 456T258 488Q258 507 270 519T300 531Q318 531 329 519T341 488Q341 468 330 456T300 444Q282 444 270 456ZM75 263T69 269T62 285Q62 292 68 297T84 303H528Q537 303 543 297T550
281Q550 274 544 269T528 263H84Q75 263 69 269ZM282 37T270 49T258 80Q258 99 270 111T300 123Q318 123 329 111T341 80Q341 61 330 49T300 37Q282 37 270 49Z" />
<glyph unicode="&#xf8;" glyph-name="oslash" horiz-adv-x="536" d="M445 411T464 360T484 245Q484 169 457 112T381 24T268 -7Q208 -7 161 20L138 -20Q133 -31 121 -31Q112 -31 106 -25T99 -10Q99 -5 102 1L128 45Q91 78 72 129T52 245Q52 320 79 377T155 465T268
496Q326 496 375 469L399 510Q407 521 417 521Q425 521 431 515T438 500Q438 494 435 488L409 444Q445 411 464 360ZM98 137T149 81L354 433Q319 455 268 455Q188 455 143 400T98 245Q98 137 149 81ZM350 34T394 88T439 245Q439 352 387 407L182 55Q217 34 267
34Q350 34 394 88Z" />
<glyph unicode="&#xf9;" glyph-name="ugrave" d="M449 494T454 488T460 472V18Q460 -5 439 -5Q430 -5 425 1T419 18V91Q396 44 353 19T254 -7Q170 -7 127 40T83 178V472Q83 482 88 488T104 494Q114 494 119 488T125 472V182Q125 106 156 70T252 34Q327 34 372
81T418 208V472Q418 482 423 488T439 494Q449 494 454 488ZM110 702Q96 716 96 731Q96 742 103 749T120 756Q136 756 150 738L283 567Q287 563 287 557Q287 552 283 548T273 544Q267 544 262 549L110 702Z" />
<glyph unicode="&#xfa;" glyph-name="uacute" d="M449 494T454 488T460 472V18Q460 -5 439 -5Q430 -5 425 1T419 18V91Q396 44 353 19T254 -7Q170 -7 127 40T83 178V472Q83 482 88 488T104 494Q114 494 119 488T125 472V182Q125 106 156 70T252 34Q327 34 372
81T418 208V472Q418 482 423 488T439 494Q449 494 454 488ZM279 544T273 544Q268 544 264 548T259 558Q259 563 263 567L396 738Q408 756 426 756Q436 756 443 749T450 731Q450 716 436 702L284 549Q279 544 273 544Z" />
<glyph unicode="&#xfb;" glyph-name="ucircumflex" d="M449 494T454 488T460 472V18Q460 -5 439 -5Q430 -5 425 1T419 18V91Q396 44 353 19T254 -7Q170 -7 127 40T83 178V472Q83 482 88 488T104 494Q114 494 119 488T125 472V182Q125 106 156 70T252 34Q327 34
372 81T418 208V472Q418 482 423 488T439 494Q449 494 454 488ZM179 545T166 545Q157 545 151 551T144 567Q144 573 149 581L245 734Q257 753 273 753Q289 753 301 734L397 581Q402 573 402 566Q402 557 395 551T380 544Q367 544 360 557L273 705L186 557Q179 545
166 545Z" />
<glyph unicode="&#xfc;" glyph-name="udieresis" d="M449 494T454 488T460 472V18Q460 -5 439 -5Q430 -5 425 1T419 18V91Q396 44 353 19T254 -7Q170 -7 127 40T83 178V472Q83 482 88 488T104 494Q114 494 119 488T125 472V182Q125 106 156 70T252 34Q327 34 372
81T418 208V472Q418 482 423 488T439 494Q449 494 454 488ZM178 615T168 625T157 650Q157 665 167 675T193 685Q208 685 218 675T228 650Q228 635 218 625T193 615Q178 615 168 625ZM339 615T329 625T318 650Q318 665 328 675T353 685Q368 685 378 675T389 650Q389
635 379 625T353 615Q339 615 329 625Z" />
<glyph unicode="&#xfd;" glyph-name="yacute" horiz-adv-x="504" d="M451 494T464 494Q472 494 478 489T484 474Q484 471 482 465L195 -171Q189 -183 177 -183Q169 -183 164 -178T158 -165L160 -157L232 1L22 465Q20 471 20 474Q20 483 27 489T43 495Q54 495 60
483L253 48L255 53L445 480Q451 494 464 494ZM258 544T252 544Q247 544 243 548T238 558Q238 563 242 567L375 738Q387 756 405 756Q415 756 422 749T429 731Q429 716 415 702L263 549Q258 544 252 544Z" />
<glyph unicode="&#xfe;" glyph-name="thorn" horiz-adv-x="565" d="M359 496T408 466T485 379T513 243Q513 165 485 109T408 23T297 -7Q236 -7 193 20T127 98V-162Q127 -173 121 -179T106 -185Q85 -185 85 -162V687Q85 710 106 710Q115 710 121 704T127 687V393Q149
443 192 469T297 496Q359 496 408 466ZM378 34T422 89T467 243Q467 341 423 398T297 455Q215 455 171 401T127 245Q127 144 171 89T296 34Q378 34 422 89Z" />
<glyph unicode="&#xff;" glyph-name="ydieresis" horiz-adv-x="504" d="M451 494T464 494Q472 494 478 489T484 474Q484 471 482 465L195 -171Q189 -183 177 -183Q169 -183 164 -178T158 -165L160 -157L232 1L22 465Q20 471 20 474Q20 483 27 489T43 495Q54 495
60 483L253 48L255 53L445 480Q451 494 464 494ZM157 615T147 625T136 650Q136 665 146 675T172 685Q187 685 197 675T207 650Q207 635 197 625T172 615Q157 615 147 625ZM318 615T308 625T297 650Q297 665 307 675T332 685Q347 685 357 675T368 650Q368 635 358
625T332 615Q318 615 308 625Z" />
<glyph unicode="&#x2013;" glyph-name="endash" horiz-adv-x="500" d="M10 249T5 254T0 265Q0 272 5 277T19 282H481Q490 282 495 277T500 265Q500 259 495 254T481 249H19Q10 249 5 254Z" />
<glyph unicode="&#x2014;" glyph-name="emdash" horiz-adv-x="1000" d="M10 249T5 254T0 265Q0 272 5 277T19 282H981Q990 282 995 277T1000 265Q1000 259 995 254T981 249H19Q10 249 5 254Z" />
<glyph unicode="&#x2018;" glyph-name="quoteleft" horiz-adv-x="212" d="M124 615T134 605T144 577Q144 559 134 548T107 537Q67 537 67 596Q67 657 105 702Q114 711 123 711Q131 711 136 706T141 693Q141 684 135 678Q122 664 117 650T109 616Q124 615 134 605Z" />
<glyph unicode="&#x2019;" glyph-name="quoteright" horiz-adv-x="212" d="M123 710T133 696T144 651Q144 588 106 545Q97 536 88 536Q81 536 76 541T71 554Q71 563 77 569Q89 582 94 596T102 631Q87 632 77 642T67 670Q67 688 77 699T105 710Q123 710 133 696Z" />
<glyph unicode="&#x201a;" glyph-name="quotesinglbase" horiz-adv-x="212" d="M123 75T133 61T144 16Q144 -47 106 -90Q97 -99 88 -99Q81 -99 76 -94T71 -81Q71 -72 77 -66Q89 -53 94 -39T102 -4Q87 -3 77 7T67 35Q67 53 77 64T105 75Q123 75 133 61Z" />
<glyph unicode="&#x201c;" glyph-name="quotedblleft" horiz-adv-x="355" d="M124 615T134 605T144 577Q144 559 134 548T107 537Q67 537 67 596Q67 657 105 702Q114 711 123 711Q131 711 136 706T141 693Q141 684 135 678Q122 664 117 650T109 616Q124 615 134
605ZM267 615T277 605T287 577Q287 559 277 548T250 537Q210 537 210 596Q210 657 248 702Q257 711 266 711Q274 711 279 706T284 693Q284 684 278 678Q265 664 260 650T252 616Q267 615 277 605Z" />
<glyph unicode="&#x201d;" glyph-name="quotedblright" horiz-adv-x="355" d="M123 710T133 696T144 651Q144 588 106 545Q97 536 88 536Q81 536 76 541T71 554Q71 563 77 569Q89 582 94 596T102 631Q87 632 77 642T67 670Q67 688 77 699T105 710Q123 710 133
696ZM266 710T276 696T287 651Q287 588 249 545Q240 536 231 536Q224 536 219 541T214 554Q214 563 220 569Q232 582 237 596T245 631Q230 632 220 642T210 670Q210 688 220 699T248 710Q266 710 276 696Z" />
<glyph unicode="&#x201e;" glyph-name="quotedblbase" horiz-adv-x="355" d="M123 75T133 61T144 16Q144 -47 106 -90Q97 -99 88 -99Q81 -99 76 -94T71 -81Q71 -72 77 -66Q89 -53 94 -39T102 -4Q87 -3 77 7T67 35Q67 53 77 64T105 75Q123 75 133 61ZM266 75T276
61T287 16Q287 -47 249 -90Q240 -99 231 -99Q224 -99 219 -94T214 -81Q214 -72 220 -66Q232 -53 237 -39T245 -4Q230 -3 220 7T210 35Q210 53 220 64T248 75Q266 75 276 61Z" />
<glyph unicode="&#x2022;" glyph-name="bullet" horiz-adv-x="524" d="M214 88T172 111T106 175T81 265Q81 311 104 352T169 418T262 443Q310 443 351 420T418 356T443 265Q443 217 419 177T353 112T262 88Q214 88 172 111Z" />
<glyph unicode="&#x2039;" glyph-name="guilsinglleft" horiz-adv-x="236" d="M61 251Q57 261 57 265Q57 270 61 278L144 422Q151 435 164 435Q171 435 176 431T181 419Q181 413 179 410L104 265L179 119Q181 116 181 110Q181 103 176 99T164 95Q151 95 144 108L61 251Z" />
<glyph unicode="&#x203a;" glyph-name="guilsinglright" horiz-adv-x="236" d="M84 96T71 96Q64 96 60 99T55 110Q55 116 57 119L131 265L57 410Q54 415 54 420Q54 427 59 431T71 435Q84 435 91 422L175 278Q179 273 179 265Q179 258 175 251L91 108Q84 96 71 96Z" />
</font>
</defs>
</svg>
